[MINI-HD] Bedazzled (2000) 7 พรพิลึก เสกคนให้ยุ่งเหยิง [720p] [พากย์ไทย 5.1 + เสียงอังกฤษ 5.1] [บรรยายไทย + อังกฤษ] [เสียงไทย + ซับไทย/อังกฤษ] [PANDAFILE]

4

โหลดหนัง Bedazzled (2000) 7 พรพิลึก เสกคนให้ยุ่งเหยิง

Bedazzled | October 20, 2000 (United States) Summary: Hopeless dweeb Elliot Richards is granted seven wishes by the Devil to snare Allison, the girl of his dreams, in exchange for his soul.
Countries: United States, GermanyLanguages: English, Spanish, Russian

เรื่องย่อ Bedazzled (2000) 7 พรพิลึก เสกคนให้ยุ่งเหยิง

Elliot Richards ชายหนุ่ม นิสัยดี ที่ชอบช่วยเหลือผู้อื่น แต่คำปรึกษาของเขาดูจะไม่ค่อย เป็นที่สบอารมณ์ของคนฟังสักเท่าไร เขากำลัง ตกหลุมรัก Alison Gardner เพื่อนร่วมงานสาวสวย แต่น่าเสียดายที่เธอรู้จักเขาดีเกินไป ดังนั้นเมื่อ Elliot หมดหวังที่จะได้ความรักจาก Alison เขาจึงตกลงที่จะทำสัญญากับปีศาจ ที่มาในรูปลักษณ์ของสาวสวยที่เปี่ยมไปด้วยพลังอำนาจกับอารมณ์ขัน อันร้ายกาจซึ่งเขาจะได้พบในไม่ช้า โดยสาวสวยเจ้าเล่ห์มีพร 7 ประการ มาเสนอ ให้กับ Elliot เพื่อแลกกับวิญญาณของเขาเป็นการตอบแทน

Complete name : [MINI-HD]_Bedazzled.2000.720p.BDRip.AC3.x264.One2loadup.com.mkv
Format : Matroska
Format version : Version 4 / Version 2
File size : 2.39 GiB
Duration : 1 h 33 min
Overall bit rate : 3 671 kb/s
Movie name : [MINI-HD]_Bedazzled.2000.720p.BDRip.AC3.x264.One2loadup.com
Encoded date : UTC 2015-12-26 02:19:57
Writing application : mkvmerge v8.1.0 (‘Psychedelic Postcard’) 32bit
Writing library : libebml v1.3.1 + libmatroska v1.4.2

Video
ID : 1
Format : AVC
Format/Info : Advanced Video Codec
Format profile : [email protected]
Format settings, CABAC : Yes
Format settings, RefFrames : 5 frames
Codec ID : V_MPEG4/ISO/AVC
Duration : 1 h 33 min
Bit rate : 2 830 kb/s
Width : 1 280 pixels
Height : 720 pixels
Display aspect ratio : 16:9
Frame rate mode : Constant
Frame rate : 23.976 FPS
Color space : YUV
Chroma subsampling : 4:2:0
Bit depth : 8 bits
Scan type : Progressive
Bits/(Pixel*Frame) : 0.128
Stream size : 1.84 GiB (77%)
Title : [MINI-HD]_Bedazzled.2000.720p.BDRip.AC3.x264.One2loadup.com
Writing library : x264 core 68 r1183M f21daff
Encoding settings : cabac=1 / ref=5 / deblock=1:0:0 / analyse=0x3:0x133 / me=umh / subme=9 / psy_rd=1.0:0.0 / mixed_ref=1 / me_range=32 / chroma_me=1 / trellis=2 / 8x8dct=1 / cqm=0 / deadzone=21,11 / chroma_qp_offset=-2 / threads=3 / nr=0 / decimate=1 / mbaff=0 / bframes=3 / b_pyramid=1 / b_adapt=2 / b_bias=0 / direct=3 / wpredb=1 / keyint=250 / keyint_min=25 / scenecut=40 / rc=crf / crf=22.5 / qcomp=0.60 / qpmin=10 / qpmax=51 / qpstep=4 / ip_ratio=1.40 / pb_ratio=1.30 / aq=1:1.00
Language : English
Default : Yes
Forced : No

Audio #1
ID : 2
Format : AC-3
Format/Info : Audio Coding 3
Format settings, Endianness : Big
Codec ID : A_AC3
Duration : 1 h 33 min
Bit rate mode : Constant
Bit rate : 384 kb/s
Channel(s) : 6 channels
Channel positions : Front: L C R, Side: L R, LFE
Sampling rate : 48.0 kHz
Frame rate : 31.250 FPS (1536 SPF)
Bit depth : 16 bits
Compression mode : Lossy
Stream size : 256 MiB (10%)
Title : AC3 MASTER ZAKKY
Language : Thai
Service kind : Complete Main
Default : Yes
Forced : Yes

Audio #2
ID : 3
Format : AC-3
Format/Info : Audio Coding 3
Format settings, Endianness : Big
Codec ID : A_AC3
Duration : 1 h 33 min
Bit rate mode : Constant
Bit rate : 384 kb/s
Channel(s) : 6 channels
Channel positions : Front: L C R, Side: L R, LFE
Sampling rate : 48.0 kHz
Frame rate : 31.250 FPS (1536 SPF)
Bit depth : 16 bits
Compression mode : Lossy
Stream size : 256 MiB (10%)
Title : AC3 ZAKKY
Language : English
Service kind : Complete Main
Default : No
Forced : No

Text #1
ID : 4
Format : VobSub
Codec ID : S_VOBSUB
Codec ID/Info : Picture based subtitle format used on DVDs
Title : 480P DVD MASTER ZAKKY
Language : Thai
Default : Yes
Forced : No

Text #2
ID : 5
Format : UTF-8
Codec ID : S_TEXT/UTF8
Codec ID/Info : UTF-8 Plain Text
Title : SRT
Language : English
Default : No
Forced : No

DOWNLOAD


PART01 |||| PART02 |||| PART03

PART01 |||| PART02 |||| PART03

PART01 |||| PART02 |||| PART03

PART01 |||| PART02 |||| PART03


4 Comments
  1. Okay Ok
    Okay Ok says

    part ไม่ครบ

    1. Admin
      Admin says

      ไม่ครบยังไงหว่า หนังมีแค่ 3 part แค่นั้นล่ะฮ๊ะ

  2. Theera Seetasut
    Theera Seetasut says

    ลิ้งเสียครับ

    1. Admin
      Admin says

      แก้ไขเรียบร้อยฮ๊ะ

Leave A Reply

อีเมล์ของคุณจะไม่แสดงให้เห็น Your email address will not be published.

%d bloggers like this: