[MINI Super-HQ] Attraction (2017) มหาวิบัติเอเลี่ยนถล่มโลก [1080p] [พากย์ไทย DTS + เสียงรัสเซีย DTS] [บรรยายไทย + อังกฤษ] [เสียงไทย + ซับไทย] [PANDAFILE]

3

โหลดหนัง Attraction (2017) มหาวิบัติเอเลี่ยนถล่มโลก 

Prityazhenie (2017) 1h 57min | Romance, Sci-Fi | 26 January 2017 (Russia) Summary: After an alien ship crash lands onto a Russian city, many who saw it and the occupants start to question their own existence while there are those who demand the aliens leave Earth.
Countries: RussiaLanguages: Russian

เรื่องย่อ Attraction (2017) มหาวิบัติเอเลี่ยนถล่มโลก

เมื่อโลกถูกรุกรานด้วยการเยือนของสิ่งมีชีวิตนอกโลก ที่มีเทคโนโลยีที่ล้ำหน้าและอันตรายยิ่งกว่าการเข้ามาของมันได้สร้างความเสียหายอย่างยิ่งใหญ่ทั้งบ้านเรือนถูกทำลายและผู้เสียชีวิต มนุษยชาติอาจต้องตกภายใต้หายนะที่อาจหมายถึงจุดจบของโลก การต่อสู้เพื่อปกป้องโลกไว้ อาจต้องใช้ทั้งกองทัพ หรือ อาจจะเป็นเพียงคนไม่กี่หยิบมือที่พร้อมแลกด้วยชีวิต

Complete name : [MINI Super-HQ]_Attraction.2017.1080p.BrRip.DTS.x264.One2loadup.com.mkv
Format : Matroska
Format version : Version 4 / Version 2
File size : 4.29 GiB
Duration : 2 h 12 min
Overall bit rate : 4 638 kb/s
Movie name : [MINI Super-HQ]_Attraction.2017.1080p.BrRip.DTS.x264.One2loadup.com
Encoded date : UTC 2010-02-22 21:41:31
Writing application : mkvmerge v5.9.0 (‘On The Loose’) built on Dec 9 2012 15:37:01
Writing library : libebml v1.3.0 + libmatroska v1.4.0

Video
ID : 1
Format : AVC
Format/Info : Advanced Video Codec
Format profile : [email protected]
Format settings, CABAC : Yes
Format settings, RefFrames : 4 frames
Codec ID : V_MPEG4/ISO/AVC
Duration : 2 h 12 min
Bit rate : 3 003 kb/s
Width : 1 920 pixels
Height : 804 pixels
Display aspect ratio : 2.40:1
Frame rate mode : Constant
Frame rate : 24.000 FPS
Color space : YUV
Chroma subsampling : 4:2:0
Bit depth : 8 bits
Scan type : Progressive
Bits/(Pixel*Frame) : 0.081
Stream size : 2.81 GiB (65%)
Title : [MINI Super-HQ]_Attraction.2017.1080p.BrRip.DTS.x264.One2loadup.com
Writing library : x264 core 130 r2273 b3065e6
Encoding settings : cabac=1 / ref=3 / deblock=1:0:0 / analyse=0x3:0x113 / me=umh / subme=11 / psy=1 / psy_rd=1.00:0.00 / mixed_ref=1 / me_range=48 / chroma_me=1 / trellis=2 / 8x8dct=1 / cqm=0 / deadzone=21,11 / fast_pskip=1 / chroma_qp_offset=-2 / threads=10 / lookahead_threads=1 / sliced_threads=0 / nr=0 / decimate=1 / interlaced=0 / bluray_compat=0 / constrained_intra=0 / bframes=3 / b_pyramid=2 / b_adapt=1 / b_bias=0 / direct=1 / weightb=1 / open_gop=0 / weightp=2 / keyint=240 / keyint_min=24 / scenecut=40 / intra_refresh=0 / rc_lookahead=40 / rc=2pass / mbtree=1 / bitrate=3003 / ratetol=1.0 / qcomp=0.60 / qpmin=0 / qpmax=69 / qpstep=4 / cplxblur=20.0 / qblur=0.5 / ip_ratio=1.40 / aq=1:1.00
Language : Russian
Default : Yes
Forced : No
Color range : Limited
Color primaries : BT.709
Transfer characteristics : BT.709
Matrix coefficients : BT.709

Audio #1
ID : 2
Format : DTS
Format/Info : Digital Theater Systems
Mode : 16
Format settings, Endianness : Big
Codec ID : A_DTS
Duration : 2 h 12 min
Bit rate mode : Constant
Bit rate : 755 kb/s
Channel(s) : 6 channels
Channel positions : Front: L C R, Side: L R, LFE
Sampling rate : 48.0 kHz
Frame rate : 93.750 FPS (512 SPF)
Bit depth : 24 bits
Compression mode : Lossy
Delay relative to video : 14 s 0 ms
Stream size : 715 MiB (16%)
Title : Thai DTS BluRay Master
Language : Thai
Default : Yes
Forced : Yes

Audio #2
ID : 3
Format : DTS
Format/Info : Digital Theater Systems
Mode : 16
Format settings, Endianness : Big
Codec ID : A_DTS
Duration : 2 h 12 min
Bit rate mode : Constant
Bit rate : 755 kb/s
Channel(s) : 6 channels
Channel positions : Front: L C R, Side: L R, LFE
Sampling rate : 48.0 kHz
Frame rate : 93.750 FPS (512 SPF)
Bit depth : 24 bits
Compression mode : Lossy
Stream size : 715 MiB (16%)
Title : Russian DTS
Language : Russian
Default : No
Forced : No

Text #1
ID : 4
Format : VobSub
Codec ID : S_VOBSUB
Codec ID/Info : Picture based subtitle format used on DVDs
Language : Thai
Default : Yes
Forced : Yes

Text #2
ID : 5
Format : VobSub
Codec ID : S_VOBSUB
Codec ID/Info : Picture based subtitle format used on DVDs
Title : Thai 480p
Language : Thai
Default : No
Forced : No

Text #3
ID : 6
Format : VobSub
Codec ID : S_VOBSUB
Codec ID/Info : Picture based subtitle format used on DVDs
Title : Thai 720p
Language : Thai
Default : No
Forced : No

Text #4
ID : 7
Format : VobSub
Codec ID : S_VOBSUB
Codec ID/Info : Picture based subtitle format used on DVDs
Title : Thai 1080p
Language : Thai
Default : No
Forced : No

Text #5
ID : 8
Format : VobSub
Codec ID : S_VOBSUB
Codec ID/Info : Picture based subtitle format used on DVDs
Title : Thai 1080p Yellow
Language : Thai
Default : No
Forced : No

Text #6
ID : 9
Format : VobSub
Codec ID : S_VOBSUB
Codec ID/Info : Picture based subtitle format used on DVDs
Title : Thai 1080p BIG
Language : Thai
Default : No
Forced : No

Text #7
ID : 10
Format : VobSub
Codec ID : S_VOBSUB
Codec ID/Info : Picture based subtitle format used on DVDs
Title : Thai 1080p Out
Language : Thai
Default : No
Forced : No

Text #8
ID : 11
Format : PGS
Codec ID : S_HDMV/PGS
Codec ID/Info : Picture based subtitle format used on BDs/HD-DVDs
Title : Thai PGS BluRay Master
Language : Thai
Default : No
Forced : No

Text #9
ID : 12
Format : PGS
Codec ID : S_HDMV/PGS
Codec ID/Info : Picture based subtitle format used on BDs/HD-DVDs
Title : Thai PGS Out
Language : Thai
Default : No
Forced : No

Text #10
ID : 13
Format : PGS
Codec ID : S_HDMV/PGS
Codec ID/Info : Picture based subtitle format used on BDs/HD-DVDs
Title : English
Language : Thai
Default : No
Forced : No

Menu
00:00:00.000 : en:Chapter 1
00:10:03.708 : en:Chapter 2
00:23:20.208 : en:Chapter 3
00:29:36.458 : en:Chapter 4
00:42:24.417 : en:Chapter 5
00:50:32.000 : en:Chapter 6
01:02:20.500 : en:Chapter 7
01:14:38.833 : en:Chapter 8
01:23:25.292 : en:Chapter 9
01:37:06.625 : en:Chapter 10
01:46:10.292 : en:Chapter 11
01:55:38.500 : en:Chapter 12

DOWNLOAD


PART01 |||| PART02 |||| PART03 |||| PART04 |||| PART05

PART01 |||| PART02 |||| PART03 |||| PART04 |||| PART05

PART01 |||| PART02 |||| PART03 |||| PART04 |||| PART05

PART01 |||| PART02 |||| PART03 |||| PART04 |||| PART05


3 Comments
  1. Captain Barbossa
    Captain Barbossa says

    โหลดไม่ได้ครับ

    1. Admin
      Admin says

      แก้ไขเรียบร้อยฮ๊ะ

      1. Captain Barbossa
        Captain Barbossa says

        ขอบคุณครับ


Disable Comments
%d bloggers like this: