[MINI Super-HQ] Allied (2016) สายลับพันธมิตร [1080p] [พากย์ไทย 2.0 + เสียงอังกฤษ DTS] [บรรยายไทย + อังกฤษ] [เสียงไทยมาสเตอร์ + ซับไทย] [DOSYAUPLOAD]

0

โหลดหนัง Allied (2016) สายลับพันธมิตร

Allied (2016) 2h 4min | Action, Drama, Romance | 23 November 2016 (USA) Summary: In 1942, a Canadian intelligence officer in North Africa encounters a female French Resistance fighter on a deadly mission behind enemy lines. When they reunite in London, their relationship is tested by the pressures of war.
Countries: UK, USALanguages: English, French, German, Arabic

เรื่องย่อ Allied (2016) สายลับพันธมิตร

แบรด พิตต์ รับบทนำใน Allied ภาพยนตร์โรแมนติคทริลเลอร์ เรื่องราวของสายลับยุคสงครามโลกครั้งที่ 2โดยประกบคู่กับ มาริยง โกติยาร์ นักแสดงหญิงรางวัลออสการ์ จาก La Vie en Rose กำกับการแสดงโดย โรเบิร์ต เซเม็กคิส ผู้กำกับรางวัลออสการ์จาก Forrest Gump สองสายลับ Marianne Beausjour (Marion Cotillard จาก The Dark Knight Rises, Inception) กับ Max Vatan (Brad Pitt จาก World War Z, Fight Club) พบรักกันขณะปฏิบัติภารกิจสังหารเจ้าหน้าที่ระดับสูงของเยอรมั นที่ Casablanca Max พา Marianne มาอยู่ที่ลอนดอน ทั้งสองแต่งงานกันและมีลูกสาวหนึ่งคนแต่แล้วไม่นาน Marianne ตกเป็นผู้ต้องสงสัยว่าเป็นสายลับนาซี ซึ่งหากเธอเป็นเช่นนั้นจริง Max ต้องลงมือกำจัดเธอด้วยมือตัวเองหรือมิเช่นนั้นก็กลาย เป็นกบฏทั้งคู่!!!

Complete name : [MINI Super-HQ]_Allied.2016.1080p.BrRip.DTS.x264.THM.One2loadup.com.mkv
Format : Matroska
Format version : Version 4
File size : 4.11 GiB
Duration : 2 h 4 min
Overall bit rate : 4 728 kb/s
Movie name : [MINI Super-HQ]_Allied.2016.1080p.BrRip.DTS.x264.THM.One2loadup.com
Encoded date : UTC 2021-01-12 15:29:00
Writing application : mkvmerge v51.0.0 (‘I Wish’) 64-bit
Writing library : libebml v1.4.0 + libmatroska v1.6.2
Cover : Yes
Attachments : cover.jpg

Video
ID : 1
Format : AVC
Format/Info : Advanced Video Codec
Format profile : [email protected]
Format settings : CABAC / 4 Ref Frames
Format settings, CABAC : Yes
Format settings, ReFrames : 4 frames
Codec ID : V_MPEG4/ISO/AVC
Duration : 2 h 4 min
Bit rate : 3 505 kb/s
Width : 1 920 pixels
Height : 800 pixels
Display aspect ratio : 2.40:1
Frame rate mode : Constant
Frame rate : 23.976 FPS
Color space : YUV
Chroma subsampling : 4:2:0
Bit depth : 8 bits
Scan type : Progressive
Bits/(Pixel*Frame) : 0.095
Stream size : 3.04 GiB (74%)
Title : [MINI Super-HQ]_Allied.2016.1080p.BrRip.DTS.x264.THM.One2loadup.com
Writing library : x264 core 130 r2273 b3065e6
Encoding settings : cabac=1 / ref=3 / deblock=1:0:0 / analyse=0x3:0x113 / me=umh / subme=11 / psy=1 / psy_rd=1.00:0.00 / mixed_ref=1 / me_range=48 / chroma_me=1 / trellis=2 / 8x8dct=1 / cqm=0 / deadzone=21,11 / fast_pskip=1 / chroma_qp_offset=-2 / threads=12 / lookahead_threads=1 / sliced_threads=0 / nr=0 / decimate=1 / interlaced=0 / bluray_compat=0 / constrained_intra=0 / bframes=3 / b_pyramid=2 / b_adapt=1 / b_bias=0 / direct=1 / weightb=1 / open_gop=0 / weightp=2 / keyint=240 / keyint_min=24 / scenecut=40 / intra_refresh=0 / rc_lookahead=40 / rc=2pass / mbtree=1 / bitrate=3505 / ratetol=1.0 / qcomp=0.60 / qpmin=0 / qpmax=69 / qpstep=4 / cplxblur=20.0 / qblur=0.5 / ip_ratio=1.40 / aq=1:1.00
Language : English
Default : Yes
Forced : No
Color range : Limited
Color primaries : BT.709
Transfer characteristics : BT.709
Matrix coefficients : BT.709

Audio #1
ID : 2
Format : DTS
Format/Info : Digital Theater Systems
Codec ID : A_DTS
Duration : 2 h 4 min
Bit rate mode : Constant
Bit rate : 755 kb/s
Channel(s) : 6 channels
Channel layout : C L R Ls Rs LFE
Sampling rate : 48.0 kHz
Frame rate : 93.750 FPS (512 SPF)
Bit depth : 24 bits
Compression mode : Lossy
Stream size : 672 MiB (16%)
Title : English DTS
Language : English
Default : No
Forced : No

Audio #2
ID : 3
Format : AC-3
Format/Info : Audio Coding 3
Commercial name : Dolby Digital
Codec ID : A_AC3
Duration : 2 h 4 min
Bit rate mode : Constant
Bit rate : 448 kb/s
Channel(s) : 2 channels
Channel layout : L R
Sampling rate : 44.1 kHz
Frame rate : 28.711 FPS (1536 SPF)
Bit depth : 16 bits
Compression mode : Lossy
Stream size : 399 MiB (9%)
Title : 2.0 AC3 TH
Language : Thai
Service kind : Complete Main
Default : Yes
Forced : No

Text #1
ID : 4
Format : VobSub
Muxing mode : zlib
Codec ID : S_VOBSUB
Codec ID/Info : Picture based subtitle format used on DVDs
Duration : 2 h 3 min
Bit rate : 1 303 b/s
Count of elements : 1045
Stream size : 1.15 MiB (0%)
Title : Thai 480p
Language : Thai
Default : No
Forced : No

Text #2
ID : 5
Format : VobSub
Muxing mode : zlib
Codec ID : S_VOBSUB
Codec ID/Info : Picture based subtitle format used on DVDs
Duration : 2 h 3 min
Bit rate : 1 936 b/s
Count of elements : 1045
Stream size : 1.71 MiB (0%)
Title : Thai 720p
Language : Thai
Default : No
Forced : No

Text #3
ID : 6
Format : VobSub
Muxing mode : zlib
Codec ID : S_VOBSUB
Codec ID/Info : Picture based subtitle format used on DVDs
Duration : 2 h 3 min
Bit rate : 3 441 b/s
Count of elements : 1045
Stream size : 3.04 MiB (0%)
Title : Thai 1080p
Language : Thai
Default : Yes
Forced : Yes

Text #4
ID : 7
Format : VobSub
Muxing mode : zlib
Codec ID : S_VOBSUB
Codec ID/Info : Picture based subtitle format used on DVDs
Duration : 2 h 3 min
Bit rate : 3 441 b/s
Count of elements : 1045
Stream size : 3.04 MiB (0%)
Title : Thai 1080p Yellow
Language : Thai
Default : No
Forced : No

Text #5
ID : 8
Format : VobSub
Muxing mode : zlib
Codec ID : S_VOBSUB
Codec ID/Info : Picture based subtitle format used on DVDs
Duration : 2 h 3 min
Bit rate : 3 441 b/s
Count of elements : 1045
Stream size : 3.04 MiB (0%)
Title : Thai 1080p Out
Language : Thai
Default : No
Forced : No

Text #6
ID : 9
Format : VobSub
Muxing mode : zlib
Codec ID : S_VOBSUB
Codec ID/Info : Picture based subtitle format used on DVDs
Duration : 2 h 3 min
Bit rate : 4 798 b/s
Count of elements : 1045
Stream size : 4.23 MiB (0%)
Title : Thai 1080p BIG
Language : Thai
Default : No
Forced : No

Text #7
ID : 10
Format : VobSub
Muxing mode : zlib
Codec ID : S_VOBSUB
Codec ID/Info : Picture based subtitle format used on DVDs
Duration : 2 h 3 min
Bit rate : 4 798 b/s
Count of elements : 1045
Stream size : 4.23 MiB (0%)
Title : Thai 1080p Out [BIG]
Language : Thai
Default : No
Forced : No

Text #8
ID : 11
Format : PGS
Muxing mode : zlib
Codec ID : S_HDMV/PGS
Codec ID/Info : Picture based subtitle format used on BDs/HD-DVDs
Duration : 2 h 3 min
Bit rate : 13.8 kb/s
Count of elements : 2084
Stream size : 12.1 MiB (0%)
Title : Thai PGS BluRay Master
Language : Thai
Default : No
Forced : No

Text #9
ID : 12
Format : PGS
Muxing mode : zlib
Codec ID : S_HDMV/PGS
Codec ID/Info : Picture based subtitle format used on BDs/HD-DVDs
Duration : 2 h 3 min
Bit rate : 13.8 kb/s
Count of elements : 2090
Stream size : 12.2 MiB (0%)
Title : Thai PGS Out
Language : Thai
Default : No
Forced : No

Text #10
ID : 13
Format : PGS
Muxing mode : zlib
Codec ID : S_HDMV/PGS
Codec ID/Info : Picture based subtitle format used on BDs/HD-DVDs
Duration : 1 h 51 min
Bit rate : 22.2 kb/s
Count of elements : 2082
Stream size : 17.6 MiB (0%)
Title : English
Language : English
Default : No
Forced : No

Menu
00:00:00.000 : en:Chapter 1
00:05:38.087 : en:Chapter 2
00:16:39.748 : en:Chapter 3
00:24:31.428 : en:Chapter 4
00:33:52.280 : en:Chapter 5
00:43:07.543 : en:Chapter 6
00:49:14.117 : en:Chapter 7
01:01:39.320 : en:Chapter 8
01:09:36.338 : en:Chapter 9
01:16:44.016 : en:Chapter 10
01:26:14.961 : en:Chapter 11
01:31:53.049 : en:Chapter 12
01:40:12.172 : en:Chapter 13
01:47:25.105 : en:Chapter 14
01:56:34.821 : en:Chapter 15

DOWNLOAD


PART01 |||| PART02 |||| PART03 |||| PART04 |||| PART05

PART01 |||| PART02 |||| PART03 |||| PART04 |||| PART05

PART01 |||| PART02 |||| PART03 |||| PART04 |||| PART05

PART01 |||| PART02 |||| PART03 |||| PART04 |||| PART05

PART01 |||| PART02 |||| PART03 |||| PART04 |||| PART05



แจ้งหนังเสีย หรือโหลดไม่ได้ ทั้งลิ้งฟรีและ vip สามารถกดที่รูปด้านบนนี้ได้เลย

: Disable Comments
%d bloggers like this: