[MINI Super-HQ] Aliens in the Attic (2009) มันมาจากข้างบนกับแก๊งซนพิทักษ์โลก [1080p] [พากย์ไทย 5.1 + เสียงอังกฤษ 5.1] [บรรยายไทย + อังกฤษ] [เสียงไทย + ซับไทย] [PANDAFILE]

2

โหลดหนัง Aliens in the Attic (2009) มันมาจากข้างบนกับแก๊งซนพิทักษ์โลก

Aliens in the Attic | July 31, 2009 (United States) Summary: A group of kids must protect their vacation home from invading aliens.
Countries: United States, CanadaLanguages: English

เรื่องย่อ Aliens in the Attic (2009) มันมาจากข้างบนกับแก๊งซนพิทักษ์โลก

วันหยุดปิดภาคเรียนของเด็กๆ ในครอบครัวเพียร์สันต้องระทึก เมื่อแก๊งเอเลี่ยนตัวเขียวขับยานอวกาศลงมาบนหลังคาบ้าน เพื่อยึดครองบ้านของพวกเขาและโลก ถึงเวลาที่กลุ่มพี่น้องเพียร์สันต้องใช้ไหวพริบ ความกล้าหาญและความชำนาญในการเล่นวิดีโอเกมต่อกรกับเหล่าเอเลี่ยนและพิทักษ์โลกให้พ้นภัย โดยไม่ให้พ่อแม่รู้เรื่องเป็นอันขาด!

Complete name : [MINI Super-HQ]_Aliens.in.the.Attic.2009.1080p.BluRay.x264.One2loadup.com.mkv
Format : Matroska
Format version : Version 4 / Version 2
File size : 4.59 GiB
Duration : 1 h 25 min
Overall bit rate : 7 663 kb/s
Movie name : [MINI Super-HQ]_Aliens.in.the.Attic.2009.1080p.BluRay.x264.One2loadup.com
Encoded date : UTC 2010-02-22 21:41:31
Writing application : mkvmerge v5.9.0 (‘On The Loose’) built on Dec 9 2012 15:37:01
Writing library : libebml v1.3.0 + libmatroska v1.4.0

Video
ID : 1
Format : AVC
Format/Info : Advanced Video Codec
Format profile : [email protected]
Format settings : CABAC / 5 Ref Frames
Format settings, CABAC : Yes
Format settings, ReFrames : 5 frames
Codec ID : V_MPEG4/ISO/AVC
Duration : 1 h 25 min
Bit rate : 6 500 kb/s
Width : 1 920 pixels
Height : 1 032 pixels
Display aspect ratio : 1.85:1
Frame rate mode : Constant
Frame rate : 23.976 FPS
Color space : YUV
Chroma subsampling : 4:2:0
Bit depth : 8 bits
Scan type : Progressive
Bits/(Pixel*Frame) : 0.137
Stream size : 3.85 GiB (84%)
Writing library : x264 core 115 r1936 7a9e08d
Encoding settings : cabac=1 / ref=5 / deblock=1:-3:-3 / analyse=0x3:0x113 / me=umh / subme=8 / psy=1 / psy_rd=1.00:0.00 / mixed_ref=0 / me_range=41 / chroma_me=1 / trellis=0 / 8x8dct=1 / cqm=0 / deadzone=21,11 / fast_pskip=1 / chroma_qp_offset=-2 / threads=9 / sliced_threads=0 / nr=0 / decimate=1 / interlaced=0 / bluray_compat=0 / constrained_intra=0 / bframes=10 / b_pyramid=2 / b_adapt=1 / b_bias=0 / direct=1 / weightb=1 / open_gop=0 / weightp=1 / keyint=250 / keyint_min=23 / scenecut=40 / intra_refresh=0 / rc_lookahead=60 / rc=2pass / mbtree=1 / bitrate=6500 / ratetol=1.0 / qcomp=0.60 / qpmin=15 / qpmax=28 / qpstep=3 / cplxblur=20.0 / qblur=0.5 / ip_ratio=1.40 / aq=1:1.10
Language : English
Default : Yes
Forced : No

Audio #1
ID : 2
Format : AC-3
Format/Info : Audio Coding 3
Codec ID : A_AC3
Duration : 1 h 25 min
Bit rate mode : Constant
Bit rate : 640 kb/s
Channel(s) : 6 channels
Channel positions : Front: L C R, Side: L R, LFE
Sampling rate : 48.0 kHz
Frame rate : 31.250 FPS (1536 SPF)
Bit depth : 16 bits
Compression mode : Lossy
Stream size : 393 MiB (8%)
Language : English
Service kind : Complete Main
Default : Yes
Forced : Yes

Audio #2
ID : 3
Format : AC-3
Format/Info : Audio Coding 3
Codec ID : A_AC3
Duration : 1 h 25 min
Bit rate mode : Constant
Bit rate : 448 kb/s
Channel(s) : 6 channels
Channel positions : Front: L C R, Side: L R, LFE
Sampling rate : 48.0 kHz
Frame rate : 31.250 FPS (1536 SPF)
Bit depth : 16 bits
Compression mode : Lossy
Stream size : 275 MiB (6%)
Language : Thai
Service kind : Complete Main
Default : No
Forced : No

Text #1
ID : 4
Format : VobSub
Codec ID : S_VOBSUB
Codec ID/Info : Picture based subtitle format used on DVDs
Language : Thai
Default : Yes
Forced : Yes

Text #2
ID : 5
Format : VobSub
Codec ID : S_VOBSUB
Codec ID/Info : Picture based subtitle format used on DVDs
Language : Thai
Default : No
Forced : No

Text #3
ID : 6
Format : PGS
Codec ID : S_HDMV/PGS
Codec ID/Info : Picture based subtitle format used on BDs/HD-DVDs
Language : Thai
Default : No
Forced : No

Text #4
ID : 7
Format : UTF-8
Codec ID : S_TEXT/UTF8
Codec ID/Info : UTF-8 Plain Text
Language : English
Default : No
Forced : No

Menu
00:00:00.000 : en:Chapter 1
00:03:27.373 : en:Chapter 2
00:08:13.951 : en:Chapter 3
00:10:03.227 : en:Chapter 4
00:13:24.053 : en:Chapter 5
00:15:59.416 : en:Chapter 6
00:18:43.330 : en:Chapter 7
00:20:41.657 : en:Chapter 8
00:22:52.954 : en:Chapter 9
00:26:38.305 : en:Chapter 10
00:30:15.605 : en:Chapter 11
00:33:06.734 : en:Chapter 12
00:35:30.127 : en:Chapter 13
00:42:21.789 : en:Chapter 14
00:46:53.602 : en:Chapter 15
00:49:34.137 : en:Chapter 16
00:54:31.142 : en:Chapter 17
00:59:57.844 : en:Chapter 18
01:03:50.117 : en:Chapter 19
01:08:24.934 : en:Chapter 20
01:13:25.609 : en:Chapter 21
01:17:59.508 : en:Chapter 22
01:19:16.710 : en:Chapter 23
01:20:33.328 : en:Chapter 24

DOWNLOAD


PART01 |||| PART02 |||| PART03 |||| PART04 |||| PART05

PART01 |||| PART02 |||| PART03 |||| PART04 |||| PART05

PART01 |||| PART02 |||| PART03 |||| PART04 |||| PART05

PART01 |||| PART02 |||| PART03 |||| PART04 |||| PART05

PART01 |||| PART02 |||| PART03 |||| PART04 |||| PART05


2 Comments
  1. The Viper
    The Viper says

    เสียครับ

    1. Admin
      Admin says

      แก้ไขเรียบร้อยฮ๊ะ

Leave A Reply

อีเมล์ของคุณจะไม่แสดงให้เห็น Your email address will not be published.

%d bloggers like this: