[เกาหลี] The Witch: Part 2. The Other One (2022) แม่มดมือสังหาร 2 [1080p] [พากย์เกมหลี 5.1] [Soundtrack บรรยายไทย] [เสียงเกาหลี + ซับไทย] [USERLOAD]

0

โหลดหนัง The Witch: Part 2. The Other One (2022) แม่มดมือสังหาร 2

The Witch: Part 2. The Other One | June 15, 2022 (South Korea) Summary: A girl wakes up in a secret laboratory and meets Kyung-hee, who is trying to protect her from a gang. When the gang finally finds the girl, they are overwhelmed by an unexpected power.
Countries: South KoreaLanguages: Korean

เรื่องย่อ The Witch: Part 2. The Other One (2022) แม่มดมือสังหาร 2

Complete name : The.Witch.Part.2.2022.1080p.WEBRip.AC3.x264.Suthai.One2loadup.com.mkv
Format : Matroska
Format version : Version 4
File size : 8.08 GiB
Duration : 2 h 17 min
Overall bit rate : 8 419 kb/s
Movie name : The.Witch.Part.2.2022.1080p.WEBRip.AC3.x264.Suthai.One2loadup.com
Encoded date : UTC 2022-09-19 08:24:50
Writing application : mkvmerge v68.0.0 (‘The Curtain’) 64-bit
Writing library : libebml v1.4.2 + libmatroska v1.6.4

Video
ID : 1
Format : AVC
Format/Info : Advanced Video Codec
Format profile : [email protected]
Format settings : CABAC / 2 Ref Frames
Format settings, CABAC : Yes
Format settings, Reference : 2 frames
Format settings, GOP : M=1, N=30
Codec ID : V_MPEG4/ISO/AVC
Duration : 2 h 17 min
Bit rate mode : Constant
Bit rate : 8 000 kb/s
Width : 1 920 pixels
Height : 1 080 pixels
Display aspect ratio : 16:9
Frame rate mode : Constant
Frame rate : 23.976 (24000/1001) FPS
Color space : YUV
Chroma subsampling : 4:2:0
Bit depth : 8 bits
Scan type : Progressive
Bits/(Pixel*Frame) : 0.161
Stream size : 7.68 GiB (95%)
Title : The.Witch.Part.2.2022.1080p.WEBRip.AC3.x264.Suthai.One2loadup.com
Language : Korean
Default : Yes
Forced : No

Audio
ID : 2
Format : AC-3
Format/Info : Audio Coding 3
Commercial name : Dolby Digital
Codec ID : A_AC3
Duration : 2 h 17 min
Bit rate mode : Constant
Bit rate : 384 kb/s
Channel(s) : 6 channels
Channel layout : L R C LFE Ls Rs
Sampling rate : 48.0 kHz
Frame rate : 31.250 FPS (1536 SPF)
Compression mode : Lossy
Stream size : 378 MiB (5%)
Title : Korean AC-3 DD5.1
Language : Korean
Service kind : Complete Main
Default : No
Forced : No

Text #1
ID : 3
Format : UTF-8
Codec ID : S_TEXT/UTF8
Codec ID/Info : UTF-8 Plain Text
Duration : 2 h 15 min
Bit rate : 32 b/s
Count of elements : 1294
Stream size : 32.2 KiB (0%)
Title : SRT Full
Language : English
Default : No
Forced : No

Text #2
ID : 4
Format : VobSub
Muxing mode : zlib
Codec ID : S_VOBSUB
Codec ID/Info : Picture based subtitle format used on DVDs
Duration : 2 h 16 min
Bit rate : 5 176 b/s
Count of elements : 1308
Stream size : 5.04 MiB (0%)
Title : VOB
Language : Thai
Default : Yes
Forced : No

Text #3
ID : 5
Format : PGS
Muxing mode : zlib
Codec ID : S_HDMV/PGS
Codec ID/Info : Picture based subtitle format used on BDs/HD-DVDs
Duration : 2 h 16 min
Bit rate : 20.9 kb/s
Count of elements : 2616
Stream size : 20.3 MiB (0%)
Title : PGS-DST
Language : Thai
Default : Yes
Forced : No

Text #4
ID : 6
Format : PGS
Muxing mode : zlib
Codec ID : S_HDMV/PGS
Codec ID/Info : Picture based subtitle format used on BDs/HD-DVDs
Duration : 2 h 16 min
Bit rate : 19.1 kb/s
Count of elements : 2616
Stream size : 18.6 MiB (0%)
Title : PGS-EUC2
Language : Thai
Default : Yes
Forced : No

Text #5
ID : 7
Format : PGS
Muxing mode : zlib
Codec ID : S_HDMV/PGS
Codec ID/Info : Picture based subtitle format used on BDs/HD-DVDs
Duration : 2 h 16 min
Bit rate : 18.6 kb/s
Count of elements : 2616
Stream size : 18.1 MiB (0%)
Title : PGS-AS
Language : Thai
Default : Yes
Forced : No

DOWNLOAD


PART01 |||| PART02 |||| PART03 |||| PART04 |||| PART05 |||| PART06 |||| PART07 |||| PART08 |||| PART09

PART01 |||| PART02 |||| PART03 |||| PART04 |||| PART05 |||| PART06 |||| PART07 |||| PART08 |||| PART09

PART01 |||| PART02 |||| PART03 |||| PART04 |||| PART05 |||| PART06 |||| PART07 |||| PART08 |||| PART09

PART01 |||| PART02 |||| PART03 |||| PART04 |||| PART05 |||| PART06 |||| PART07 |||| PART08 |||| PART09

PART01 |||| PART02 |||| PART03 |||| PART04 |||| PART05 |||| PART06 |||| PART07 |||| PART08 |||| PART09


Leave A Reply

อีเมล์ของคุณจะไม่แสดงให้เห็น Your email address will not be published.

%d bloggers like this: