[เกาหลี] The Soul-Mate (2018) คนกับผี คู่เเสบแบบว่าป่วง [1080p] [พากย์เกาหลี 5.1] [Soundtrack บรรยายไทย + อังกฤษ] [เสียงเกาหลี + ซับไทย] [PANDAFILE]

0

โหลดหนัง The Soul-Mate (2018) คนกับผี คู่เเสบแบบว่าป่วง

Wondeopul goseuteu (2018) 1h 37min | Comedy, Fantasy | 26 September 2018 (South Korea) Summary: Tae-jin, a patrol officer, gets into an accident while investigating a case, and his soul gets separated from his body. He is desperate to solve the case and return to his beloved ... See full summary »
Countries: South KoreaLanguages: Korean

เรื่องย่อ The Soul-Mate (2018) คนกับผี คู่เเสบแบบว่าป่วง

The Soul-Mate หรือชื่อเดิมว่า Wonderful Ghost เป็นภาพยนตร์แนวสืบสวนอาชญากรรมผสมคอมมาดี้และดราม่า (Comedy-Crime-Drama) เรื่องราวของ แทจิน (คิมยองกวาง) เจ้าหน้าที่ตำรวจผู้ประสบอุบัติเหตุระหว่างสืบสวนคดี จนทำให้วิญญาณของเขาหลุดออกจากร่าง เขาได้กลายเป็นวิญญาณเร่ร่อน จนกระทั่งเขาพบว่าคนที่สามารถมองเห็นวิญญาณของเขาได้มีเพียง ครูสอนยูโดนามว่า จางซู (มาดงซ็อก) พวกเขาจึงต้องร่วมมือกันสะสางคดีที่ค้างคาเพื่อค้นหาความจริงเบื้องหลังการตายและมิตรภาพต่างภพก็ได้บังเกิดขึ้น

Complete name : The.Soul-Mate.2018.1080p.WEB-DL.AC3.x264.Subthai.One2loadup.com.mkv
Format : Matroska
Format version : Version 4
File size : 3.25 GiB
Duration : 1 h 37 min
Overall bit rate mode : Variable
Overall bit rate : 4 765 kb/s
Movie name : The.Soul-Mate.2018.1080p.WEB-DL.AC3.x264.Subthai.One2loadup.com
Encoded date : UTC 2020-01-15 17:29:19
Writing application : mkvmerge v42.0.0 (‘Overtime’) 64-bit
Writing library : libebml v1.3.10 + libmatroska v1.5.2

Video
ID : 1
Format : AVC
Format/Info : Advanced Video Codec
Format profile : [email protected]
Format settings : CABAC / 1 Ref Frames
Format settings, CABAC : Yes
Format settings, ReFrames : 1 frame
Codec ID : V_MPEG4/ISO/AVC
Duration : 1 h 37 min
Bit rate mode : Variable
Bit rate : 4 343 kb/s
Maximum bit rate : 13.1 Mb/s
Width : 1 920 pixels
Height : 1 036 pixels
Display aspect ratio : 1.85:1
Frame rate mode : Constant
Frame rate : 29.970 (29970/1000) FPS
Original frame rate : 29.970 (30000/1001) FPS
Color space : YUV
Chroma subsampling : 4:2:0
Bit depth : 8 bits
Scan type : Progressive
Bits/(Pixel*Frame) : 0.073
Stream size : 2.96 GiB (91%)
Title : The.Soul-Mate.2018.1080p.WEB-DL.AC3.x264.Subthai.One2loadup.com
Language : Korean
Default : Yes
Forced : No

Audio
ID : 2
Format : AC-3
Format/Info : Audio Coding 3
Commercial name : Dolby Digital
Codec ID : A_AC3
Duration : 1 h 37 min
Bit rate mode : Constant
Bit rate : 384 kb/s
Channel(s) : 2 channels
Channel layout : L R
Sampling rate : 48.0 kHz
Frame rate : 31.250 FPS (1536 SPF)
Bit depth : 16 bits
Compression mode : Lossy
Delay relative to video : -38 ms
Stream size : 268 MiB (8%)
Title : AC-3 Korean
Language : Korean
Service kind : Complete Main
Default : Yes
Forced : No

Text #1
ID : 3
Format : VobSub
Muxing mode : zlib
Codec ID : S_VOBSUB
Codec ID/Info : Picture based subtitle format used on DVDs
Duration : 1 h 33 min
Bit rate : 9 401 b/s
Count of elements : 1276
Stream size : 6.29 MiB (0%)
Title : Sub Thai 1080p
Language : Thai
Default : No
Forced : No

Text #2
ID : 4
Format : UTF-8
Codec ID : S_TEXT/UTF8
Codec ID/Info : UTF-8 Plain Text
Duration : 1 h 33 min
Bit rate : 103 b/s
Count of elements : 1276
Stream size : 71.3 KiB (0%)
Title : Sub Thai SRT
Language : Thai
Default : No
Forced : No

Text #3
ID : 5
Format : PGS
Muxing mode : zlib
Codec ID : S_HDMV/PGS
Codec ID/Info : Picture based subtitle format used on BDs/HD-DVDs
Duration : 1 h 33 min
Bit rate : 37.6 kb/s
Count of elements : 2552
Stream size : 25.2 MiB (1%)
Title : PGS Thai
Language : Thai
Default : Yes
Forced : No

Text #4
ID : 6
Format : VobSub
Muxing mode : zlib
Codec ID : S_VOBSUB
Codec ID/Info : Picture based subtitle format used on DVDs
Duration : 1 h 33 min
Bit rate : 9 245 b/s
Count of elements : 1278
Stream size : 6.19 MiB (0%)
Title : Sub English 1080p
Language : English
Default : No
Forced : No

Text #5
ID : 7
Format : UTF-8
Codec ID : S_TEXT/UTF8
Codec ID/Info : UTF-8 Plain Text
Duration : 1 h 33 min
Bit rate : 40 b/s
Count of elements : 1278
Stream size : 27.8 KiB (0%)
Title : Sub English SRT
Language : English
Default : No
Forced : No

Text #6
ID : 8
Format : PGS
Muxing mode : zlib
Codec ID : S_HDMV/PGS
Codec ID/Info : Picture based subtitle format used on BDs/HD-DVDs
Duration : 1 h 33 min
Bit rate : 34.6 kb/s
Count of elements : 2556
Stream size : 23.2 MiB (1%)
Title : PGS English
Language : English
Default : No
Forced : No

DOWNLOAD


PART01 |||| PART02 |||| PART03 |||| PART04

PART01 |||| PART02 |||| PART03 |||| PART04

PART01 |||| PART02 |||| PART03 |||| PART04

PART01 |||| PART02 |||| PART03 |||| PART04

PART01 |||| PART02 |||| PART03 |||| PART04


Leave A Reply

Your email address will not be published.

%d bloggers like this: