[เกาหลี] The Outlaws (2017) เถื่อน เหนือกฏหมาย [1080p] [พากย์เกาหลี 2.0] [บรรยายไทย + อังกฤษ] [เสียงเกาหลี + ซับไทย] [PANDAFILE]

2

โหลดหนัง The Outlaws (2017) เถื่อน เหนือกฏหมาย

The Outlaws | October 6, 2017 (United States) Summary: Based on real events, this crime action film depicts a Seoul detective's attempts to keep peace while two Chinese-Korean gangs battle over turf in the neighborhood.
Countries: South KoreaLanguages: Korean, Chinese

เรื่องย่อ The Outlaws (2017) เถื่อน เหนือกฏหมาย

เรื่องราวดังกว่าเกิดจากสงครามที่เกิดขึ้นระหว่างแก๊งท้องถิ่นในเขตการิบง และแก๊งฮึกซาพา (แก๊งมังกรดำ) จากยันเบียบน ประเจทศจีน โดยมีจางเฉิน (ยูนคเยซัง) เป็นหัวหน้าแก๊งที่ลักลอบเข้ามาในเกาหลี ยึดอาชีพเจ้าหนี้นอกระบบโดยมีวิธีทวงเงินอันป่าเถื่นอาศัยอยู่ย่านไซน่าทาวน์ของโซล ขณะเดียวกันก็มี เหวยซองรัก และ ยางแท ลูกสมุนเลือดเดือดคอยรับใช้ มาซกโด (มาดงซอก) เป็นนักสืบในเขตนั้น หน้าที่เขาคือรักษาสันติภาพระหว่างแก๊งจีน-เกาลี ซึ่งทั้งสองแก๊งที่มักจะมีเรื่องกันเป็นประจำแต่แล้วเมื่องจางเฉนเห็นลู่ทางทำมาหากินในเขตนั้น เขาจึงพยายามหุบกิจการของแก๊งเจ้าถื่นโดยวิธีอันป่าเถื่อน มาซอกโด และเหล่าตำรวจจึงต้องหาทางจัดการแก๊งอันธพาลทั้งหลายให้ได้

Complete name : The.Outlaws.1080p.AC3.x264.One2loadup.com.mkv
Format : Matroska
Format version : Version 4 / Version 2
File size : 4.93 GiB
Duration : 2 h 1 min
Overall bit rate : 5 820 kb/s
Movie name : The.Outlaws.1080p.AC3.x264.One2loadup.com
Encoded date : UTC 2010-02-22 21:41:31
Writing application : mkvmerge v5.9.0 (‘On The Loose’) built on Dec 9 2012 15:37:01
Writing library : libebml v1.3.0 + libmatroska v1.4.0

Video
ID : 1
Format : AVC
Format/Info : Advanced Video Codec
Format profile : [email protected]
Format settings : CABAC / 5 Ref Frames
Format settings, CABAC : Yes
Format settings, ReFrames : 5 frames
Format settings, GOP : M=4, N=23
Codec ID : V_MPEG4/ISO/AVC
Duration : 2 h 1 min
Bit rate : 5 120 kb/s
Width : 1 920 pixels
Height : 1 080 pixels
Display aspect ratio : 16:9
Frame rate mode : Constant
Frame rate : 23.976 (24000/1001) FPS
Color space : YUV
Chroma subsampling : 4:2:0
Bit depth : 8 bits
Scan type : Progressive
Bits/(Pixel*Frame) : 0.103
Stream size : 4.29 GiB (87%)
Title : The.Outlaws.1080p.AC3.x264.One2loadup.com
Writing library : x264 core 148 r2768 d32d7bf
Encoding settings : cabac=1 / ref=5 / deblock=1:0:0 / analyse=0x3:0x113 / me=hex / subme=8 / psy=1 / psy_rd=1.00:0.00 / mixed_ref=1 / me_range=16 / chroma_me=1 / trellis=2 / 8x8dct=1 / cqm=0 / deadzone=21,11 / fast_pskip=1 / chroma_qp_offset=-2 / threads=24 / lookahead_threads=4 / sliced_threads=0 / nr=0 / decimate=1 / interlaced=0 / bluray_compat=0 / stitchable=1 / constrained_intra=0 / bframes=3 / b_pyramid=2 / b_adapt=1 / b_bias=0 / direct=3 / weightb=1 / open_gop=0 / weightp=2 / keyint=23 / keyint_min=12 / scenecut=40 / intra_refresh=0 / rc_lookahead=23 / rc=2pass / mbtree=1 / bitrate=5120 / ratetol=1.0 / qcomp=0.60 / qpmin=0 / qpmax=69 / qpstep=4 / cplxblur=20.0 / qblur=0.5 / ip_ratio=1.40 / aq=1:1.00
Language : Korean
Default : Yes
Forced : Yes

Audio
ID : 2
Format : AC-3
Format/Info : Audio Coding 3
Codec ID : A_AC3
Duration : 2 h 1 min
Bit rate mode : Constant
Bit rate : 640 kb/s
Channel(s) : 2 channels
Channel positions : Front: L R
Sampling rate : 48.0 kHz
Frame rate : 31.250 FPS (1536 SPF)
Bit depth : 16 bits
Compression mode : Lossy
Stream size : 555 MiB (11%)
Title : Korean AC3
Language : Korean
Service kind : Complete Main
Default : Yes
Forced : Yes

Text #1
ID : 3
Format : VobSub
Codec ID : S_VOBSUB
Codec ID/Info : Picture based subtitle format used on DVDs
Title : Thai 480p.
Language : Thai
Default : No
Forced : No

Text #2
ID : 4
Format : VobSub
Codec ID : S_VOBSUB
Codec ID/Info : Picture based subtitle format used on DVDs
Title : Thai 720p.
Language : Thai
Default : No
Forced : No

Text #3
ID : 5
Format : VobSub
Codec ID : S_VOBSUB
Codec ID/Info : Picture based subtitle format used on DVDs
Title : Thai 1080p.
Language : Thai
Default : Yes
Forced : Yes

Text #4
ID : 6
Format : VobSub
Codec ID : S_VOBSUB
Codec ID/Info : Picture based subtitle format used on DVDs
Title : Thai 1080p. Sarabun
Language : Thai
Default : No
Forced : No

Text #5
ID : 7
Format : VobSub
Codec ID : S_VOBSUB
Codec ID/Info : Picture based subtitle format used on DVDs
Title : Thai 1080p. Yellow
Language : Thai
Default : No
Forced : No

Text #6
ID : 8
Format : PGS
Codec ID : S_HDMV/PGS
Codec ID/Info : Picture based subtitle format used on BDs/HD-DVDs
Title : Thai PGS
Language : Thai
Default : No
Forced : No

Text #7
ID : 9
Format : UTF-8
Codec ID : S_TEXT/UTF8
Codec ID/Info : UTF-8 Plain Text
Title : English SRT
Language : English
Default : No
Forced : No

DOWNLOAD


PART01 |||| PART02 |||| PART03 |||| PART04 |||| PART05

PART01 |||| PART02 |||| PART03 |||| PART04 |||| PART05

PART01 |||| PART02 |||| PART03 |||| PART04 |||| PART05

PART01 |||| PART02 |||| PART03 |||| PART04 |||| PART05

PART01 |||| PART02 |||| PART03 |||| PART04 |||| PART05


2 Comments
  1. ha says

    ลิงค์เสียหมดแล้ว ช่วยอัพใหม่ได้มั้ยครับ ขอบคุณครับ

    1. admin
      admin says

      แก้ไขเรียบร้อยฮ๊ะ

Leave A Reply

อีเมล์ของคุณจะไม่แสดงให้เห็น Your email address will not be published.

%d bloggers like this: