[เกาหลี] The Divine Move 2:The Wrathful (2019) เซียนหมาก โค่นโคตรเซียน 2 [1080p] [พากย์ไทย 2.0] [ไม่มีบรรยาย] [เสียงไทยมาสเตอร์] [PANDAFILE]

0

โหลดหนัง The Divine Move 2:The Wrathful (2019) เซียนหมาก โค่นโคตรเซียน 2

The Divine Move 2: The Wrathful (2019) 1h 46min | Action | 22 November 2019 (USA) Summary: In the 1990s, when Go gambling fever swept Korea, Gui-su loses everything because his father gambled obsessively until there was nothing left. Left all alone in the world, Gui-su meets a ... See full summary »
Countries: South KoreaLanguages: Korean

เรื่องย่อ The Divine Move 2:The Wrathful (2019) เซียนหมาก โค่นโคตรเซียน 2

ชื่อหนังต้นฉบับ: Shinui Han Soo: Gwisoopyeon กวีซู (ควอนซังอู) ชายที่สูญเสียทุกสิ่งทุกอย่างไปจากการเล่นหมากล้อม แต่ด้วยความช่วยเหลือจากอาจารย์ฮออิลโด (คิมซองคยุน) และอาจารย์ตง (คิมฮีวอน) ทำให้เขากลายเป็นผู้เล่นที่เก่งกาจและกลับมาเล่นเกมเ ดิมพันสูงอีกครั้ง เขาจึงตามหาเซียนหมากล้อมเพื่อท้าประลองไปทั่วประเทศ

Complete name : The.Divine.Move.2.The.Wrathful.2019.1080p.WEB-DL.AC3.x264.One2loadup.com.mkv
Format : Matroska
Format version : Version 2
File size : 3.85 GiB
Duration : 1 h 45 min
Overall bit rate mode : Constant
Overall bit rate : 5 202 kb/s
Movie name : The.Divine.Move.2.The.Wrathful.2019.1080p.WEB-DL.AC3.x264.One2loadup.com
Encoded date : UTC 2020-10-17 21:41:16
Writing application : DVDFab 11.0.3.1
Writing library : libebml v1.3.4 + libmatroska v1.4.5

Video
ID : 1
Format : AVC
Format/Info : Advanced Video Codec
Format profile : [email protected]
Format settings : CABAC / 4 Ref Frames
Format settings, CABAC : Yes
Format settings, ReFrames : 4 frames
Format settings, GOP : M=3, N=24
Codec ID : V_MPEG4/ISO/AVC
Duration : 1 h 45 min
Bit rate mode : Constant
Bit rate : 5 009 kb/s
Nominal bit rate : 5 558 kb/s
Width : 1 920 pixels
Height : 804 pixels
Display aspect ratio : 2.40:1
Frame rate mode : Constant
Frame rate : 24.000 FPS
Color space : YUV
Chroma subsampling : 4:2:0
Bit depth : 8 bits
Scan type : Progressive
Bits/(Pixel*Frame) : 0.135
Stream size : 3.70 GiB (96%)
Title : The.Divine.Move.2.The.Wrathful.2019.1080p.WEB-DL.AC3.x264.One2loadup.com
Default : Yes
Forced : No
Color range : Limited
Color primaries : BT.709
Transfer characteristics : BT.709
Matrix coefficients : BT.709

Audio
ID : 2
Format : AC-3
Format/Info : Audio Coding 3
Commercial name : Dolby Digital
Codec ID : A_AC3
Duration : 1 h 45 min
Bit rate mode : Constant
Bit rate : 192 kb/s
Channel(s) : 2 channels
Channel layout : L R
Sampling rate : 48.0 kHz
Frame rate : 31.250 FPS (1536 SPF)
Bit depth : 16 bits
Compression mode : Lossy
Stream size : 145 MiB (4%)
Service kind : Complete Main
Default : Yes
Forced : No

DOWNLOAD


PART01 |||| PART02 |||| PART03 |||| PART04

PART01 |||| PART02 |||| PART03 |||| PART04

PART01 |||| PART02 |||| PART03 |||| PART04

PART01 |||| PART02 |||| PART03 |||| PART04

PART01 |||| PART02 |||| PART03 |||| PART04



แจ้งหนังเสีย หรือโหลดไม่ได้ ทั้งลิ้งฟรีและ vip สามารถกดที่รูปด้านบนนี้ได้เลย

: Disable Comments
%d bloggers like this: