[เกาหลี] Samjin Company English Class (2020) คลาสภาษา พิชิตโทอิค ฟุดฟิดทุจริตองค์กร [1080p] [VIU] [พากย์เกาหลี 2.0] [Soundtrack บรรยายไทย + อังกฤษ] [เสียงเกาหลี + ซับไทย] [PANDAFILE]

2

โหลดหนัง Samjin Company English Class (2020) คลาสภาษา พิชิตโทอิค ฟุดฟิดทุจริตองค์กร

Samjin Company English Class | October 21, 2020 (South Korea) Summary:
Countries: South KoreaLanguages: Korean, English

เรื่องย่อ Samjin Company English Class (2020) คลาสภาษา พิชิตโทอิค ฟุดฟิดทุจริตองค์กร

อีจายอง (โกอาซอง), จองยูนา (อีซม), ชิมโบรัม (พัคฮเยซู) ทำงานอยู่ในบริษัท Samjin และแล้ววันนึงทางบริษัทก็ประกาศว่าจะเลื่อนขั้นพนักงานให้ โดยจะต้องมีคะแนน TOEIC 600 หรือมากกว่าเท่านั้นทั้ง 3 คนใฝ่ฝันที่อยากจะได้เลื่อนขั้นจึงลงเรียนพิเศษภาษาอังกฤษที่ Samjin Co. English Class แต่ต่อมาก็ได้พบว่าบริษัทของพวกเธอมีการคอรัปชั่นเกิดขึ้นภายในพวกเธอจึงตัดสินใจร่วมมือกัน เพื่อเปิดโปงเรื่องราวทั้งหมด

Complete name : Samjin.Company.English.Class.2020.1080p.WEB-DL.AC3.x264.Subthai.One2loadup.com.mkv
Format : Matroska
Format version : Version 4
File size : 4.11 GiB
Duration : 1 h 50 min
Overall bit rate : 5 309 kb/s
Movie name : Samjin.Company.English.Class.2020.1080p.WEB-DL.AC3.x264.Subthai.One2loadup.com
Encoded date : UTC 2021-02-23 14:21:51
Writing application : mkvmerge v53.0.0 (‘Fool’s Gold’) 64-bit
Writing library : libebml v1.4.1 + libmatroska v1.6.2

Video
ID : 1
Format : AVC
Format/Info : Advanced Video Codec
Format profile : [email protected]
Format settings : CABAC / 3 Ref Frames
Format settings, CABAC : Yes
Format settings, ReFrames : 3 frames
Codec ID : V_MPEG4/ISO/AVC
Duration : 1 h 50 min
Bit rate : 4 870 kb/s
Width : 1 920 pixels
Height : 800 pixels
Display aspect ratio : 2.40:1
Frame rate mode : Constant
Frame rate : 29.970 (30000/1001) FPS
Color space : YUV
Chroma subsampling : 4:2:0
Bit depth : 8 bits
Scan type : Progressive
Bits/(Pixel*Frame) : 0.106
Stream size : 3.77 GiB (92%)
Title : Samjin.Company.English.Class.2020.1080p.WEB-DL.AC3.x264.Subthai.One2loadup.com
Language : Korean
Default : Yes
Forced : No

Audio
ID : 2
Format : AC-3
Format/Info : Audio Coding 3
Commercial name : Dolby Digital
Codec ID : A_AC3
Duration : 1 h 50 min
Bit rate mode : Constant
Bit rate : 384 kb/s
Channel(s) : 2 channels
Channel layout : L R
Sampling rate : 48.0 kHz
Frame rate : 31.250 FPS (1536 SPF)
Bit depth : 16 bits
Compression mode : Lossy
Delay relative to video : 21 ms
Stream size : 304 MiB (7%)
Title : AC-3 Korean
Language : Korean
Service kind : Complete Main
Default : Yes
Forced : No

Text #1
ID : 3
Format : VobSub
Muxing mode : zlib
Codec ID : S_VOBSUB
Codec ID/Info : Picture based subtitle format used on DVDs
Duration : 1 h 46 min
Bit rate : 16.0 kb/s
Count of elements : 1571
Stream size : 12.2 MiB (0%)
Title : Sub Thai 1080p
Language : Thai
Default : No
Forced : No

Text #2
ID : 4
Format : UTF-8
Codec ID : S_TEXT/UTF8
Codec ID/Info : UTF-8 Plain Text
Duration : 1 h 46 min
Bit rate : 163 b/s
Count of elements : 1571
Stream size : 127 KiB (0%)
Title : Sub Thai SRT
Language : Thai
Default : No
Forced : No

Text #3
ID : 5
Format : PGS
Muxing mode : zlib
Codec ID : S_HDMV/PGS
Codec ID/Info : Picture based subtitle format used on BDs/HD-DVDs
Duration : 1 h 46 min
Bit rate : 47.0 kb/s
Count of elements : 3142
Stream size : 35.7 MiB (1%)
Title : Sub Thai PGS
Language : Thai
Default : Yes
Forced : No

Text #4
ID : 6
Format : VobSub
Muxing mode : zlib
Codec ID : S_VOBSUB
Codec ID/Info : Picture based subtitle format used on DVDs
Duration : 1 h 46 min
Bit rate : 13.1 kb/s
Count of elements : 1571
Stream size : 9.93 MiB (0%)
Title : Sub English 1080p
Language : English
Default : No
Forced : No

Text #5
ID : 7
Format : UTF-8
Codec ID : S_TEXT/UTF8
Codec ID/Info : UTF-8 Plain Text
Duration : 1 h 46 min
Bit rate : 57 b/s
Count of elements : 1571
Stream size : 45.1 KiB (0%)
Title : Sub English SRT
Language : English
Default : No
Forced : No

Text #6
ID : 8
Format : PGS
Muxing mode : zlib
Codec ID : S_HDMV/PGS
Codec ID/Info : Picture based subtitle format used on BDs/HD-DVDs
Duration : 1 h 46 min
Bit rate : 36.0 kb/s
Count of elements : 3142
Stream size : 27.3 MiB (1%)
Title : Sub English PGS
Language : English
Default : No
Forced : No

DOWNLOAD


PART01 |||| PART02 |||| PART03 |||| PART04 |||| PART05

PART01 |||| PART02 |||| PART03 |||| PART04 |||| PART05

PART01 |||| PART02 |||| PART03 |||| PART04 |||| PART05

PART01 |||| PART02 |||| PART03 |||| PART04 |||| PART05

PART01 |||| PART02 |||| PART03 |||| PART04 |||| PART05


2 Comments
  1. Thawatchai
    Thawatchai says

    ยังไม่ได้อัพครับ

    1. Admin
      Admin says

      แก้ไขเรียบร้อยยฮ๊ะ

Leave A Reply

อีเมล์ของคุณจะไม่แสดงให้เห็น Your email address will not be published.

%d bloggers like this: