[เกาหลี] Keys To The Heart (2018) พี่หมัดหนัก กับน้องอัจฉริยะสุดป่วน [1080p] [พากย์ไทย 5.1] [บรรยายเกาหลี (ฝัง)] [เสียงไทย + ซับเกาหลีฝัง] [PANDAFILE]

2

โหลดหนัง Keys To The Heart (2018) พี่หมัดหนัก กับน้องอัจฉริยะสุดป่วน

Keys To The Heart | January 26, 2018 (United States) Summary: A washed-up boxer, Jo-ha, has lived his life relying on nothing but his physical strength. His champion glory lasted only a moment, and now pride is all Jo-ha has. He runs into his mom who l... Read all
Countries: South KoreaLanguages: Korean

เรื่องย่อ Keys To The Heart (2018) พี่หมัดหนัก กับน้องอัจฉริยะสุดป่วน

เรื่องราวของ โจฮา นักมวยตกอับที่ปัจจุบันเป็นแค่คนแจกใบปลิว เขาได้กลับมาหาแม่ อินซุก ในรอบ 17 ปี ผู้ที่เคยทิ้งเขาไปเมื่อยังเด็กแล้วเขามาอาศัยอยู่บ้านเดียวกันที่เขาได้พบกับ จินแท น้องชายออทิสติก ผู้มากพรสวรรค์ในการเล่นเปียโน เล่นเกมและทำราเม็ง โจฮาไม่ได้ปลาบปลื้มเขามากนัก แต่เมื่อเขาอาศัยอยู่ในบ้านเดียวกัน เขาก็เริ่มรู้จักน้องชายคนนี้ค่อย ๆ เป็นค่อย ๆ ไปและแล้วความสัมพันธ์ของทั้งสามทำให้โจฮาได้เรียนรู้ถึงความหมายของคำว่าครอบครัว!!!

Complete name : Keys.To.The.Heart.2018.1080p.WEB-DL.AC3.x264.One2loadup.com.mkv
Format : Matroska
Format version : Version 4
File size : 5.27 GiB
Duration : 2 h 0 min
Overall bit rate : 6 271 kb/s
Movie name : Keys.To.The.Heart.2018.1080p.WEB-DL.AC3.x264.One2loadup.com
Encoded date : UTC 2010-02-22 21:41:31
Writing application : mkvmerge v5.9.0 (‘On The Loose’) built on Dec 9 2012 15:37:01
Writing library : libebml v1.3.0 + libmatroska v1.4.0

Video
ID : 1
Format : AVC
Format/Info : Advanced Video Codec
Format profile : [email protected]
Format settings : CABAC / 3 Ref Frames
Format settings, CABAC : Yes
Format settings, ReFrames : 3 frames
Format settings, GOP : M=1, N=30
Codec ID : V_MPEG4/ISO/AVC
Duration : 2 h 0 min
Bit rate : 5 872 kb/s
Width : 1 920 pixels
Height : 1 080 pixels
Display aspect ratio : 16:9
Frame rate mode : Constant
Frame rate : 30.000 FPS
Color space : YUV
Chroma subsampling : 4:2:0
Bit depth : 8 bits
Scan type : Progressive
Bits/(Pixel*Frame) : 0.094
Stream size : 4.78 GiB (91%)
Title : Keys.To.The.Heart.2018.1080p.WEB-DL.AC3.x264.One2loadup.com
Writing library : x264 core 152 r2851 ba24899
Encoding settings : cabac=1 / ref=3 / deblock=1:0:0 / analyse=0x3:0x113 / me=hex / subme=7 / psy=1 / psy_rd=1.00:0.00 / mixed_ref=1 / me_range=16 / chroma_me=1 / trellis=1 / 8x8dct=1 / cqm=0 / deadzone=21,11 / fast_pskip=1 / chroma_qp_offset=-2 / threads=34 / lookahead_threads=5 / sliced_threads=0 / nr=0 / decimate=1 / interlaced=0 / bluray_compat=0 / constrained_intra=0 / bframes=0 / weightp=2 / keyint=30 / keyint_min=16 / scenecut=0 / intra_refresh=0 / rc_lookahead=30 / rc=abr / mbtree=1 / bitrate=5872 / ratetol=1.0 / qcomp=0.60 / qpmin=0 / qpmax=69 / qpstep=4 / vbv_maxrate=5900 / vbv_bufsize=5872 / nal_hrd=none / filler=0 / ip_ratio=1.40 / aq=1:1.00
Language : Korean
Default : Yes
Forced : No

Audio
ID : 2
Format : AC-3
Format/Info : Audio Coding 3
Commercial name : Dolby Digital
Codec ID : A_AC3
Duration : 2 h 0 min
Bit rate mode : Constant
Bit rate : 448 kb/s
Channel(s) : 6 channels
Channel layout : L R C LFE Ls Rs
Sampling rate : 48.0 kHz
Frame rate : 31.250 FPS (1536 SPF)
Bit depth : 16 bits
Compression mode : Lossy
Delay relative to video : 500 ms
Stream size : 385 MiB (7%)
Title : Thai DVD Master
Language : Thai
Service kind : Complete Main
Default : No
Forced : No

DOWNLOAD


PART01 |||| PART02 |||| PART03 |||| PART04 |||| PART05 |||| PART06

PART01 |||| PART02 |||| PART03 |||| PART04 |||| PART05 |||| PART06

PART01 |||| PART02 |||| PART03 |||| PART04 |||| PART05 |||| PART06

PART01 |||| PART02 |||| PART03 |||| PART04 |||| PART05 |||| PART06


2 Comments
  1. ha says

    ลิงค์เสียหมดแล้ว ช่วยอัพใหม่ได้มั้ยครับ ขอบคุณครับ

    1. Admin
      Admin says

      แก้ไขเรียบร้อยฮ๊ะ

Leave A Reply

อีเมล์ของคุณจะไม่แสดงให้เห็น Your email address will not be published.

%d bloggers like this: