[เกาหลี] Deliver Us Evil (2020) ให้มันจบที่นรก [1080p] [พากย์ไทยโรง 2.0 + เสียงเกาหลี 2.0] [บรรยายไทย + อังกฤษ] [เสียงไทยโรง + ซับไทย] [PANDAFILE]

0

โหลดหนัง Deliver Us Evil (2020) ให้มันจบที่นรก

Deliver Us from Evil (2020) 108min | Action, Crime, Thriller | August 5, 2020 (South Korea) Summary: An assassin goes to Thailand in order to solve a kidnapping case linked to him, and finds himself chased by a man whose sibling he killed.
Countries: South KoreaLanguages: Korean, Thai, English, Japanese

เรื่องย่อ Deliver Us Evil (2020) ให้มันจบที่นรก

เรื่องราวของนักฆ่าคนหนึ่งที่มีแผนจะวางมือหลังจากเสร็จสิ้นภารกิจครั้งสุดท้าย แต่แล้วเขาก็มารู้ว่าตัวเองได้เข้าไปพัวพันกับคดีลักพาตัวในประเทศไทย และยังถูกตามไล่ล่าโดยชายคนหนึ่งผู้ซึ่งเป็นพี่น้องกับคนที่เขาลงมือสังหารไปอีกด้วย

Complete name : Deliver.Us.From.Evil.2020.1080p.BluRay.x264.AC3.x264.THR.One2loadup.com.mkv
Format : Matroska
Format version : Version 4
File size : 4.23 GiB
Duration : 1 h 48 min
Overall bit rate : 5 588 kb/s
Movie name : Deliver.Us.From.Evil.2020.1080p.BluRay.x264.AC3.x264.THR.One2loadup.com
Encoded date : UTC 2021-05-01 03:17:45
Writing application : mkvmerge v50.0.0 (‘Awakenings’) 64-bit
Writing library : libebml v1.4.0 + libmatroska v1.6.2

Video
ID : 1
Format : AVC
Format/Info : Advanced Video Codec
Format profile : [email protected]
Format settings : CABAC / 3 Ref Frames
Format settings, CABAC : Yes
Format settings, Reference : 3 frames
Codec ID : V_MPEG4/ISO/AVC
Duration : 1 h 48 min
Bit rate : 5 047 kb/s
Width : 1 920 pixels
Height : 800 pixels
Display aspect ratio : 2.40:1
Frame rate mode : Constant
Frame rate : 29.970 (30000/1001) FPS
Color space : YUV
Chroma subsampling : 4:2:0
Bit depth : 8 bits
Scan type : Progressive
Bits/(Pixel*Frame) : 0.110
Stream size : 3.82 GiB (90%)
Title : Deliver.Us.From.Evil.2020.1080p.BluRay.x264.AC3.x264.THR.One2loadup.com
Language : Korean
Default : Yes
Forced : No

Audio #1
ID : 2
Format : AC-3
Format/Info : Audio Coding 3
Commercial name : Dolby Digital
Codec ID : A_AC3
Duration : 1 h 48 min
Bit rate mode : Constant
Bit rate : 384 kb/s
Channel(s) : 2 channels
Channel layout : L R
Sampling rate : 48.0 kHz
Frame rate : 31.250 FPS (1536 SPF)
Compression mode : Lossy
Delay relative to video : 21 ms
Stream size : 298 MiB (7%)
Title : AC-3 Korean
Language : Korean
Service kind : Complete Main
Default : Yes
Forced : No

Audio #2
ID : 9
Format : AAC LC
Format/Info : Advanced Audio Codec Low Complexity
Codec ID : A_AAC-2
Duration : 1 h 48 min
Bit rate : 128 kb/s
Channel(s) : 2 channels
Channel layout : L R
Sampling rate : 44.1 kHz
Frame rate : 43.066 FPS (1024 SPF)
Compression mode : Lossy
Delay relative to video : 16 s 0 ms
Stream size : 99.0 MiB (2%)
Title : THR
Language : Thai
Default : No
Forced : Yes

Text #1
ID : 3
Format : VobSub
Muxing mode : zlib
Codec ID : S_VOBSUB
Codec ID/Info : Picture based subtitle format used on DVDs
Duration : 1 h 41 min
Bit rate : 8 122 b/s
Count of elements : 928
Stream size : 5.92 MiB (0%)
Title : Sub Thai 1080p
Language : Thai
Default : No
Forced : No

Text #2
ID : 4
Format : UTF-8
Codec ID : S_TEXT/UTF8
Codec ID/Info : UTF-8 Plain Text
Duration : 1 h 41 min
Bit rate : 84 b/s
Count of elements : 928
Stream size : 62.9 KiB (0%)
Title : Sub Thai SRT
Language : Thai
Default : No
Forced : No

Text #3
ID : 5
Format : PGS
Muxing mode : zlib
Codec ID : S_HDMV/PGS
Codec ID/Info : Picture based subtitle format used on BDs/HD-DVDs
Duration : 1 h 41 min
Bit rate : 24.3 kb/s
Count of elements : 1856
Stream size : 17.7 MiB (0%)
Title : Sub Thai PGS
Language : Thai
Default : Yes
Forced : No

Text #4
ID : 6
Format : VobSub
Muxing mode : zlib
Codec ID : S_VOBSUB
Codec ID/Info : Picture based subtitle format used on DVDs
Duration : 1 h 41 min
Bit rate : 6 992 b/s
Count of elements : 928
Stream size : 5.10 MiB (0%)
Title : Sub English 1080p
Language : English
Default : No
Forced : No

Text #5
ID : 7
Format : UTF-8
Codec ID : S_TEXT/UTF8
Codec ID/Info : UTF-8 Plain Text
Duration : 1 h 41 min
Bit rate : 31 b/s
Count of elements : 928
Stream size : 23.3 KiB (0%)
Title : Sub English SRT
Language : English
Default : No
Forced : No

Text #6
ID : 8
Format : PGS
Muxing mode : zlib
Codec ID : S_HDMV/PGS
Codec ID/Info : Picture based subtitle format used on BDs/HD-DVDs
Duration : 1 h 41 min
Bit rate : 19.5 kb/s
Count of elements : 1856
Stream size : 14.2 MiB (0%)
Title : Sub English PGS
Language : English
Default : No
Forced : No

DOWNLOAD


PART01 |||| PART02 |||| PART03 |||| PART04 |||| PART05

PART01 |||| PART02 |||| PART03 |||| PART04 |||| PART05

PART01 |||| PART02 |||| PART03 |||| PART04 |||| PART05

PART01 |||| PART02 |||| PART03 |||| PART04 |||| PART05

PART01 |||| PART02 |||| PART03 |||| PART04 |||| PART05


Leave A Reply

อีเมล์ของคุณจะไม่แสดงให้เห็น Your email address will not be published.

%d bloggers like this: