[เกาหลี] Beasts Clawing at Straws (2020) [1080p] [VIU] [พากย์เกาหลี 5.1] [Soundtrack บรรยายไทย] [เสียงเกาหลี + ซับไทย] [PANDAFILE]

0

โหลดหนัง Beasts Clawing at Straws (2020)

Beasts Clawing at Straws (2020) 1h 48min | Crime, Drama, Thriller | 19 February 2020 (South Korea) Summary: A struggling restaurant owner, caring for his sick mom, finds a bag of cash in a sauna locker, while a customs officer gets into trouble when his girlfriend runs off with money he borrowed from a loan shark.
Countries: South KoreaLanguages: Korean

เรื่องย่อ Beasts Clawing at Straws (2020)

ชีวิตของคนแปลกหน้า 8 คน เข้ามาเกี่ยวพันกัน หลังมีคนพบกระเป๋าที่เต็มไปด้วยเงินก้อนในล็อกเกอร์ที่ซาวน่า

Complete name : Beasts.Clawing.at.Straws.2020.1080p.WEB-DL.AC3.Subthai.One2loadup.com.mkv
Format : Matroska
Format version : Version 4
File size : 4.07 GiB
Duration : 1 h 49 min
Overall bit rate : 5 344 kb/s
Movie name : Beasts.Clawing.at.Straws.2020.1080p.WEB-DL.AC3.Subthai.One2loadup.com
Encoded date : UTC 2020-10-26 12:47:19
Writing application : mkvmerge v51.0.0 (‘I Wish’) 64-bit
Writing library : libebml v1.4.0 + libmatroska v1.6.2

Video
ID : 1
Format : AVC
Format/Info : Advanced Video Codec
Format profile : [email protected]
Format settings : CABAC / 3 Ref Frames
Format settings, CABAC : Yes
Format settings, ReFrames : 3 frames
Codec ID : V_MPEG4/ISO/AVC
Duration : 1 h 49 min
Bit rate : 4 917 kb/s
Width : 1 920 pixels
Height : 808 pixels
Display aspect ratio : 2.40:1
Frame rate mode : Constant
Frame rate : 29.970 (30000/1001) FPS
Color space : YUV
Chroma subsampling : 4:2:0
Bit depth : 8 bits
Scan type : Progressive
Bits/(Pixel*Frame) : 0.106
Stream size : 3.75 GiB (92%)
Title : Beasts.Clawing.at.Straws.2020.1080p.WEB-DL.AC3.Subthai.One2loadup.com
Language : Korean
Default : Yes
Forced : No

Audio
ID : 2
Format : AC-3
Format/Info : Audio Coding 3
Commercial name : Dolby Digital
Codec ID : A_AC3
Duration : 1 h 49 min
Bit rate mode : Constant
Bit rate : 384 kb/s
Channel(s) : 2 channels
Channel layout : L R
Sampling rate : 48.0 kHz
Frame rate : 31.250 FPS (1536 SPF)
Bit depth : 16 bits
Compression mode : Lossy
Delay relative to video : 21 ms
Stream size : 300 MiB (7%)
Title : AC-3 Korean
Language : Korean
Service kind : Complete Main
Default : Yes
Forced : No

Text #1
ID : 3
Format : VobSub
Muxing mode : zlib
Codec ID : S_VOBSUB
Codec ID/Info : Picture based subtitle format used on DVDs
Duration : 1 h 41 min
Bit rate : 10.2 kb/s
Count of elements : 1328
Stream size : 7.45 MiB (0%)
Title : Sub Thai 1080p
Language : Thai
Default : No
Forced : No

Text #2
ID : 4
Format : UTF-8
Codec ID : S_TEXT/UTF8
Codec ID/Info : UTF-8 Plain Text
Duration : 1 h 41 min
Bit rate : 116 b/s
Count of elements : 1328
Stream size : 86.7 KiB (0%)
Title : Sub Thai SRT
Language : Thai
Default : No
Forced : No

Text #3
ID : 5
Format : PGS
Muxing mode : zlib
Codec ID : S_HDMV/PGS
Codec ID/Info : Picture based subtitle format used on BDs/HD-DVDs
Duration : 1 h 41 min
Bit rate : 34.1 kb/s
Count of elements : 2656
Stream size : 24.8 MiB (1%)
Title : Sub Thai PGS
Language : Thai
Default : Yes
Forced : No

Text #4
ID : 6
Format : VobSub
Muxing mode : zlib
Codec ID : S_VOBSUB
Codec ID/Info : Picture based subtitle format used on DVDs
Duration : 1 h 41 min
Bit rate : 8 532 b/s
Count of elements : 1328
Stream size : 6.20 MiB (0%)
Title : Sub English 1080p
Language : English
Default : No
Forced : No

Text #5
ID : 7
Format : UTF-8
Codec ID : S_TEXT/UTF8
Codec ID/Info : UTF-8 Plain Text
Duration : 1 h 41 min
Bit rate : 42 b/s
Count of elements : 1328
Stream size : 31.8 KiB (0%)
Title : Sub English SRT
Language : English
Default : No
Forced : No

Text #6
ID : 8
Format : PGS
Muxing mode : zlib
Codec ID : S_HDMV/PGS
Codec ID/Info : Picture based subtitle format used on BDs/HD-DVDs
Duration : 1 h 41 min
Bit rate : 29.0 kb/s
Count of elements : 2656
Stream size : 21.1 MiB (1%)
Title : Sub English PGS
Language : English
Default : No
Forced : No

DOWNLOAD


PART01 |||| PART02 |||| PART03 |||| PART04 |||| PART05

PART01 |||| PART02 |||| PART03 |||| PART04 |||| PART05

PART01 |||| PART02 |||| PART03 |||| PART04 |||| PART05

PART01 |||| PART02 |||| PART03 |||| PART04 |||| PART05

PART01 |||| PART02 |||| PART03 |||| PART04 |||| PART05



แจ้งหนังเสีย หรือโหลดไม่ได้ ทั้งลิ้งฟรีและ vip สามารถกดที่รูปด้านบนนี้ได้เลย

: Disable Comments
%d bloggers like this: