[อิสราเอล] Sand Storm (2016) (NETFLIX) [1080p] [Soundtrack + บรรยายไทย] [WEB-DL.AC-3] [Rip] [เสียงอิสราเอล + ซับไทย] [PANDAFILE]

3

โหลดหนัง Sand Storm (2016) 

Sand Storm | September 15, 2016 (Israel) Summary: When their entire lives shatter, two Bedouin women struggle to change the unchangeable rules, each in her own individual way.
Countries: Israel, Germany, FranceLanguages: Arabic

เรื่องย่อ Sand Storm (2016)

Desert noon in a Bedouin village in Southern Israel. Jalila is hosting an awkward celebration – the marriage of her husband to a second, much younger wife – while trying to conceal the insult that boils inside her. Her daughter Layla is preoccupied with a different matter. Her secret, strictly forbidden, love affair with Anuar was just unveiled by her mother. Jalila believes that the world is harsh and cruel, and the only way to win – is to keep your mouth shut, your head as high as possible without raising too much attention, and struggle from inside the limits of the traditional world surrounding you. Layla believes that there are no limits to the world surrounding her. Everything can be hers if she only wished hard enough. But, as the story unfolds, they each fail in her individual battle. Their whole family falls apart and everything they believe in shatters. Now, the two women are forced to understand that, if they wish to survive, they will have to start seeing the world from each other’s eyes. Written by Elite Zexer

Complete name : Sand.Storm.WEBRip.Netflix.SubTH.One2loadup.com.mkv
Format : Matroska
Format version : Version 4 / Version 2
File size : 2.27 GiB
Duration : 1 h 28 min
Overall bit rate : 3 691 kb/s
Encoded date : UTC 2018-02-10 14:44:10
Writing application : mkvmerge v20.0.0 (‘I Am The Sun’) 64-bit
Writing library : libebml v1.3.5 + libmatroska v1.4.8

Video
ID : 4
Format : AVC
Format/Info : Advanced Video Codec
Format profile : [email protected]
Format settings, CABAC : Yes
Format settings, RefFrames : 2 frames
Format settings, GOP : M=1, N=12
Codec ID : V_MPEG4/ISO/AVC
Duration : 1 h 28 min
Bit rate : 3 494 kb/s
Width : 1 920 pixels
Height : 1 080 pixels
Display aspect ratio : 16:9
Frame rate mode : Constant
Frame rate : 24.000 FPS
Color space : YUV
Chroma subsampling : 4:2:0
Bit depth : 8 bits
Scan type : Progressive
Bits/(Pixel*Frame) : 0.070
Stream size : 2.15 GiB (95%)
Default : Yes
Forced : No

Audio
ID : 3
Format : E-AC-3
Format/Info : Enhanced Audio Coding 3
Format settings, Endianness : Big
Codec ID : A_EAC3
Duration : 1 h 28 min
Bit rate mode : Constant
Bit rate : 192 kb/s
Channel(s) : 6 channels
Channel positions : Front: L C R, Side: L R, LFE
Sampling rate : 48.0 kHz
Frame rate : 187.500 FPS (256 SPF)
Compression mode : Lossy
Delay relative to video : -42 ms
Stream size : 121 MiB (5%)
Service kind : Complete Main
Default : Yes
Forced : No

Text #1
ID : 1
Format : UTF-8
Codec ID : S_TEXT/UTF8
Codec ID/Info : UTF-8 Plain Text
Duration : 1 h 19 min
Bit rate : 24 b/s
Count of elements : 647
Stream size : 14.4 KiB (0%)
Default : Yes
Forced : No

Text #2
ID : 2
Format : PGS
Muxing mode : zlib
Codec ID : S_HDMV/PGS
Codec ID/Info : Picture based subtitle format used on BDs/HD-DVDs
Duration : 1 h 19 min
Bit rate : 9 461 b/s
Count of elements : 1246
Stream size : 5.36 MiB (0%)
Default : No
Forced : No

 

DOWNLOAD


PART01 |||| PART02 |||| PART03

PART01 |||| PART02 |||| PART03

PART01 |||| PART02 |||| PART03

PART01 |||| PART02 |||| PART03

PART01 |||| PART02 |||| PART03


3 Comments
  1. Thawatchai
    Thawatchai says

    Sand Storm 2016 ยังไม่ได้อัพโหลด Zerofile ครับ

    1. Admin
      Admin says

      แก้ไขเรียบร้อยยฮ๊ะ

  2. Thawatchai
    Thawatchai says

    ขอบคุณนะครับ

Leave A Reply

อีเมล์ของคุณจะไม่แสดงให้เห็น Your email address will not be published.

%d bloggers like this: