[อินเดีย] Kaali Khuhi (2020) บ่อน้ำอาถรรพ์ [1080p] [พากย์ฮินดี 5.1] [Soundtrack บรรยายไทย + อังกฤษ] [เสียงฮินดี + ซับไทย] [PANDAFILE]

0

โหลดหนัง Kaali Khuhi (2020) บ่อน้ำอาถรรพ์

Kaali Khuhi (2020) 1h 30min | Drama, Horror, Mystery | 30 October 2020 (USA) Summary: Shivangi, a 10 year old girl, is put to the ultimate test to save her family's village from the restless ghosts of its horrific past.
Countries: IndiaLanguages: Hindi

เรื่องย่อ Kaali Khuhi (2020) บ่อน้ำอาถรรพ์

วิญญาณอาฆาตสาปหมู่บ้านที่มีประวัติการฆ่าทารกหญิง ชะตากรรมของเมืองจึงอยู่ในมือของเด็กหญิงวัย 10 ขวบคนหนึ่ง

Complete name : Kaali.Khuhi.2020.1080p.NF.WEB-DL.EAC3.x264.Subthai.One2loadup.com.mkv
Format : Matroska
Format version : Version 4
File size : 3.41 GiB
Duration : 1 h 30 min
Overall bit rate mode : Variable
Overall bit rate : 5 372 kb/s
Movie name : Kaali.Khuhi.2020.1080p.NF.WEB-DL.EAC3.x264.Subthai.One2loadup.com
Encoded date : UTC 2020-10-31 10:51:26
Writing application : mkvmerge v51.0.0 (‘I Wish’) 64-bit
Writing library : libebml v1.4.0 + libmatroska v1.6.2
Cover : Yes
Attachments : cover

Video
ID : 1
Format : AVC
Format/Info : Advanced Video Codec
Format profile : [email protected]
Format settings : CABAC / 3 Ref Frames
Format settings, CABAC : Yes
Format settings, ReFrames : 3 frames
Codec ID : V_MPEG4/ISO/AVC
Duration : 1 h 30 min
Bit rate mode : Variable
Bit rate : 3 480 kb/s
Maximum bit rate : 5 220 kb/s
Width : 1 920 pixels
Height : 1 080 pixels
Display aspect ratio : 16:9
Frame rate mode : Constant
Frame rate : 24.000 FPS
Color space : YUV
Chroma subsampling : 4:2:0
Bit depth : 8 bits
Scan type : Progressive
Bits/(Pixel*Frame) : 0.070
Stream size : 2.19 GiB (64%)
Title : Kaali.Khuhi.2020.1080p.NF.WEB-DL.EAC3.x264.Subthai.One2loadup.com
Writing library : x264 core 148 r2722 1b0121b
Encoding settings : cabac=1 / ref=3 / deblock=1:0:0 / analyse=0x1:0x111 / me=umh / subme=10 / psy=1 / psy_rd=1.00:0.00 / mixed_ref=1 / me_range=24 / chroma_me=1 / trellis=2 / 8x8dct=0 / cqm=0 / deadzone=21,11 / fast_pskip=1 / chroma_qp_offset=-2 / threads=8 / lookahead_threads=1 / sliced_threads=0 / nr=0 / decimate=1 / interlaced=0 / bluray_compat=0 / stitchable=1 / constrained_intra=0 / bframes=2 / b_pyramid=0 / b_adapt=2 / b_bias=0 / direct=3 / weightb=1 / open_gop=0 / weightp=2 / keyint=250 / keyint_min=24 / scenecut=0 / intra_refresh=0 / rc_lookahead=48 / rc=2pass / mbtree=1 / bitrate=3480 / ratetol=1.0 / qcomp=0.50 / qpmin=6 / qpmax=51 / qpstep=4 / cplxblur=20.0 / qblur=0.5 / vbv_maxrate=5220 / vbv_bufsize=6960 / nal_hrd=vbr / filler=0 / ip_ratio=1.40 / aq=1:1.00
Default : Yes
Forced : No

Audio #1
ID : 2
Format : E-AC-3
Format/Info : Enhanced AC-3
Commercial name : Dolby Digital Plus
Codec ID : A_EAC3
Duration : 1 h 30 min
Bit rate mode : Constant
Bit rate : 640 kb/s
Channel(s) : 6 channels
Channel layout : L R C LFE Ls Rs
Sampling rate : 48.0 kHz
Frame rate : 31.250 FPS (1536 SPF)
Compression mode : Lossy
Stream size : 416 MiB (12%)
Title : Hindi
Language : Hindi
Service kind : Complete Main
Default : Yes
Forced : No

Audio #2
ID : 3
Format : E-AC-3
Format/Info : Enhanced AC-3
Commercial name : Dolby Digital Plus
Codec ID : A_EAC3
Duration : 1 h 30 min
Bit rate mode : Constant
Bit rate : 640 kb/s
Channel(s) : 6 channels
Channel layout : L R C LFE Ls Rs
Sampling rate : 48.0 kHz
Frame rate : 31.250 FPS (1536 SPF)
Compression mode : Lossy
Stream size : 416 MiB (12%)
Title : Audio Description
Language : Hindi
Service kind : Complete Main
Default : No
Forced : No

Audio #3
ID : 4
Format : E-AC-3
Format/Info : Enhanced AC-3
Commercial name : Dolby Digital Plus
Codec ID : A_EAC3
Duration : 1 h 30 min
Bit rate mode : Constant
Bit rate : 640 kb/s
Channel(s) : 6 channels
Channel layout : L R C LFE Ls Rs
Sampling rate : 48.0 kHz
Frame rate : 31.250 FPS (1536 SPF)
Compression mode : Lossy
Stream size : 416 MiB (12%)
Title : English
Language : English
Service kind : Complete Main
Default : No
Forced : No

Text #1
ID : 5
Format : UTF-8
Codec ID : S_TEXT/UTF8
Codec ID/Info : UTF-8 Plain Text
Duration : 1 h 30 min
Bit rate : 42 b/s
Count of elements : 489
Stream size : 28.3 KiB (0%)
Title : Thai
Language : Thai
Default : Yes
Forced : No

Text #2
ID : 6
Format : UTF-8
Codec ID : S_TEXT/UTF8
Codec ID/Info : UTF-8 Plain Text
Duration : 1 h 25 min
Bit rate : 75 b/s
Count of elements : 777
Stream size : 47.2 KiB (0%)
Title : Hindi
Language : Hindi
Default : No
Forced : No

Text #3
ID : 7
Format : UTF-8
Codec ID : S_TEXT/UTF8
Codec ID/Info : UTF-8 Plain Text
Duration : 5 s 0 ms
Bit rate : 3 b/s
Count of elements : 1
Stream size : 2.00 Bytes (0%)
Title : Forced
Language : Hindi
Default : No
Forced : Yes

Text #4
ID : 8
Format : UTF-8
Codec ID : S_TEXT/UTF8
Codec ID/Info : UTF-8 Plain Text
Duration : 1 h 30 min
Bit rate : 15 b/s
Count of elements : 493
Stream size : 10.5 KiB (0%)
Title : English
Language : English
Default : No
Forced : No

Text #5
ID : 9
Format : UTF-8
Codec ID : S_TEXT/UTF8
Codec ID/Info : UTF-8 Plain Text
Duration : 1 h 30 min
Bit rate : 28 b/s
Count of elements : 488
Stream size : 19.0 KiB (0%)
Title : Arabic
Language : Arabic
Default : No
Forced : No

Text #6
ID : 10
Format : UTF-8
Codec ID : S_TEXT/UTF8
Codec ID/Info : UTF-8 Plain Text
Duration : 1 h 30 min
Bit rate : 16 b/s
Count of elements : 488
Stream size : 11.1 KiB (0%)
Title : Chinese Simplified
Language : Chinese
Default : No
Forced : No

Text #7
ID : 11
Format : UTF-8
Codec ID : S_TEXT/UTF8
Codec ID/Info : UTF-8 Plain Text
Duration : 1 h 30 min
Bit rate : 17 b/s
Count of elements : 488
Stream size : 11.4 KiB (0%)
Title : Chinese Traditional
Language : Chinese
Default : No
Forced : No

Text #8
ID : 12
Format : UTF-8
Codec ID : S_TEXT/UTF8
Codec ID/Info : UTF-8 Plain Text
Duration : 1 h 30 min
Bit rate : 14 b/s
Count of elements : 455
Stream size : 9.88 KiB (0%)
Title : Croatian
Language : Croatian
Default : No
Forced : No

Text #9
ID : 13
Format : UTF-8
Codec ID : S_TEXT/UTF8
Codec ID/Info : UTF-8 Plain Text
Duration : 1 h 30 min
Bit rate : 15 b/s
Count of elements : 482
Stream size : 10.4 KiB (0%)
Title : Czech
Language : Czech
Default : No
Forced : No

Text #10
ID : 14
Format : UTF-8
Codec ID : S_TEXT/UTF8
Codec ID/Info : UTF-8 Plain Text
Duration : 1 h 30 min
Bit rate : 15 b/s
Count of elements : 439
Stream size : 10.2 KiB (0%)
Title : Danish
Language : Danish
Default : No
Forced : No

Text #11
ID : 15
Format : UTF-8
Codec ID : S_TEXT/UTF8
Codec ID/Info : UTF-8 Plain Text
Duration : 1 h 21 min
Bit rate : 16 b/s
Count of elements : 431
Stream size : 9.97 KiB (0%)
Title : Dutch
Language : Dutch
Default : No
Forced : No

Text #12
ID : 16
Format : UTF-8
Codec ID : S_TEXT/UTF8
Codec ID/Info : UTF-8 Plain Text
Duration : 1 h 30 min
Bit rate : 14 b/s
Count of elements : 450
Stream size : 9.84 KiB (0%)
Title : Finnish
Language : Finnish
Default : No
Forced : No

Text #13
ID : 17
Format : UTF-8
Codec ID : S_TEXT/UTF8
Codec ID/Info : UTF-8 Plain Text
Duration : 1 h 30 min
Bit rate : 15 b/s
Count of elements : 475
Stream size : 10.2 KiB (0%)
Title : French
Language : French
Default : No
Forced : No

Text #14
ID : 18
Format : UTF-8
Codec ID : S_TEXT/UTF8
Codec ID/Info : UTF-8 Plain Text
Duration : 1 h 30 min
Bit rate : 14 b/s
Count of elements : 487
Stream size : 9.95 KiB (0%)
Title : German
Language : German
Default : No
Forced : No

Text #15
ID : 19
Format : UTF-8
Codec ID : S_TEXT/UTF8
Codec ID/Info : UTF-8 Plain Text
Duration : 1 h 30 min
Bit rate : 26 b/s
Count of elements : 482
Stream size : 17.8 KiB (0%)
Title : Greek
Language : Greek
Default : No
Forced : No

Text #16
ID : 20
Format : UTF-8
Codec ID : S_TEXT/UTF8
Codec ID/Info : UTF-8 Plain Text
Duration : 1 h 30 min
Bit rate : 26 b/s
Count of elements : 495
Stream size : 17.6 KiB (0%)
Title : Hebrew
Language : Hebrew
Default : No
Forced : No

Text #17
ID : 21
Format : UTF-8
Codec ID : S_TEXT/UTF8
Codec ID/Info : UTF-8 Plain Text
Duration : 1 h 30 min
Bit rate : 15 b/s
Count of elements : 460
Stream size : 10.2 KiB (0%)
Title : Hungarian
Language : Hungarian
Default : No
Forced : No

Text #18
ID : 22
Format : UTF-8
Codec ID : S_TEXT/UTF8
Codec ID/Info : UTF-8 Plain Text
Duration : 1 h 30 min
Bit rate : 14 b/s
Count of elements : 475
Stream size : 9.92 KiB (0%)
Title : Indonesian
Language : Indonesian
Default : No
Forced : No

Text #19
ID : 23
Format : UTF-8
Codec ID : S_TEXT/UTF8
Codec ID/Info : UTF-8 Plain Text
Duration : 1 h 30 min
Bit rate : 15 b/s
Count of elements : 485
Stream size : 10.2 KiB (0%)
Title : Italian
Language : Italian
Default : No
Forced : No

Text #20
ID : 24
Format : UTF-8
Codec ID : S_TEXT/UTF8
Codec ID/Info : UTF-8 Plain Text
Duration : 1 h 30 min
Bit rate : 18 b/s
Count of elements : 486
Stream size : 12.1 KiB (0%)
Title : Japanese
Language : Japanese
Default : No
Forced : No

Text #21
ID : 25
Format : UTF-8
Codec ID : S_TEXT/UTF8
Codec ID/Info : UTF-8 Plain Text
Duration : 1 h 30 min
Bit rate : 20 b/s
Count of elements : 490
Stream size : 13.6 KiB (0%)
Title : Korean
Language : Korean
Default : No
Forced : No

Text #22
ID : 26
Format : UTF-8
Codec ID : S_TEXT/UTF8
Codec ID/Info : UTF-8 Plain Text
Duration : 1 h 30 min
Bit rate : 16 b/s
Count of elements : 489
Stream size : 11.0 KiB (0%)
Title : Malay
Language : Malay
Default : No
Forced : No

Text #23
ID : 27
Format : UTF-8
Codec ID : S_TEXT/UTF8
Codec ID/Info : UTF-8 Plain Text
Duration : 1 h 30 min
Bit rate : 14 b/s
Count of elements : 472
Stream size : 9.36 KiB (0%)
Title : Norwegian Bokmal
Language : Norwegian Bokmal
Default : No
Forced : No

Text #24
ID : 28
Format : UTF-8
Codec ID : S_TEXT/UTF8
Codec ID/Info : UTF-8 Plain Text
Duration : 1 h 30 min
Bit rate : 14 b/s
Count of elements : 513
Stream size : 9.85 KiB (0%)
Title : Polish
Language : Polish
Default : No
Forced : No

Text #25
ID : 29
Format : UTF-8
Codec ID : S_TEXT/UTF8
Codec ID/Info : UTF-8 Plain Text
Duration : 1 h 30 min
Bit rate : 15 b/s
Count of elements : 479
Stream size : 10.1 KiB (0%)
Title : Portuguese
Language : Portuguese
Default : No
Forced : No

Text #26
ID : 30
Format : UTF-8
Codec ID : S_TEXT/UTF8
Codec ID/Info : UTF-8 Plain Text
Duration : 1 h 30 min
Bit rate : 15 b/s
Count of elements : 491
Stream size : 10.3 KiB (0%)
Title : Brazilian Portuguese
Language : Portuguese
Default : No
Forced : No

Text #27
ID : 31
Format : UTF-8
Codec ID : S_TEXT/UTF8
Codec ID/Info : UTF-8 Plain Text
Duration : 1 h 30 min
Bit rate : 17 b/s
Count of elements : 495
Stream size : 11.6 KiB (0%)
Title : Romanian
Language : Romanian
Default : No
Forced : No

Text #28
ID : 32
Format : UTF-8
Codec ID : S_TEXT/UTF8
Codec ID/Info : UTF-8 Plain Text
Duration : 1 h 30 min
Bit rate : 23 b/s
Count of elements : 477
Stream size : 15.9 KiB (0%)
Title : Russian
Language : Russian
Default : No
Forced : No

Text #29
ID : 33
Format : UTF-8
Codec ID : S_TEXT/UTF8
Codec ID/Info : UTF-8 Plain Text
Duration : 1 h 30 min
Bit rate : 15 b/s
Count of elements : 471
Stream size : 10.3 KiB (0%)
Title : Spanish
Language : Spanish
Default : No
Forced : No

Text #30
ID : 34
Format : UTF-8
Codec ID : S_TEXT/UTF8
Codec ID/Info : UTF-8 Plain Text
Duration : 1 h 30 min
Bit rate : 15 b/s
Count of elements : 487
Stream size : 10.1 KiB (0%)
Title : European Spanish
Language : Spanish
Default : No
Forced : No

Text #31
ID : 35
Format : UTF-8
Codec ID : S_TEXT/UTF8
Codec ID/Info : UTF-8 Plain Text
Duration : 1 h 30 min
Bit rate : 15 b/s
Count of elements : 441
Stream size : 10.0 KiB (0%)
Title : Swedish
Language : Swedish
Default : No
Forced : No

Text #32
ID : 36
Format : UTF-8
Codec ID : S_TEXT/UTF8
Codec ID/Info : UTF-8 Plain Text
Duration : 1 h 30 min
Bit rate : 14 b/s
Count of elements : 480
Stream size : 9.62 KiB (0%)
Title : Turkish
Language : Turkish
Default : No
Forced : No

Text #33
ID : 37
Format : UTF-8
Codec ID : S_TEXT/UTF8
Codec ID/Info : UTF-8 Plain Text
Duration : 1 h 30 min
Bit rate : 23 b/s
Count of elements : 488
Stream size : 15.7 KiB (0%)
Title : Vietnamese
Language : Vietnamese
Default : No
Forced : No

 

DOWNLOAD


PART01 |||| PART02 |||| PART03 |||| PART04

PART01 |||| PART02 |||| PART03 |||| PART04

PART01 |||| PART02 |||| PART03 |||| PART04

PART01 |||| PART02 |||| PART03 |||| PART04

PART01 |||| PART02 |||| PART03 |||| PART04



แจ้งหนังเสีย หรือโหลดไม่ได้ ทั้งลิ้งฟรีและ vip สามารถกดที่รูปด้านบนนี้ได้เลย

: Disable Comments
%d bloggers like this: