[อินเดีย] Dangal (2016) แดนกัล [1080p] [พากย์อินเดีย] [Soundtrack บรรยายไทย] [ซับไทย] [PANDAFILE]

3

โหลดหนัง Dangal (2016) แดนกัล

Dangal | December 21, 2016 (United States) Summary: Former wrestler Mahavir Singh Phogat and his two wrestler daughters struggle towards glory at the Commonwealth Games in the face of societal oppression.
Countries: India, United StatesLanguages: Hindi, English

เรื่องย่อ Dangal (2016) แดนกัล

หนังอินเดีย สร้างจากเรื่องจริงของนักมวยปล้ำหญิง เรื่องราวของมหาวีร์ (อาเมียร์ ข่าน) เป็นอดีตนักมวยปล้ำที่ต้องทิ้งความฝัน ที่จะชนะเหรียญทองการแข่งขันระดับโลกให้แก่ประเทศอิน เดียไป เนื่องจากว่าขาดเงินช่วยเหลือเงินสนับสนุนเพียงพอ แต่ว่ามหาวีร์ยังไม่ยินยอมทิ้งความฝันนั้นไปซะทีเดีย ว เนื่องจากว่าเขาตั้งอกตั้งใจว่าจะฝึกหัดลูกชายของเขา ในอนาคตให้ดำเนินรอยตามทางมวยปล้ำเส้นเดียวกับที่เขา เคยเดินให้ได้ ถ้าว่าชะตากรรมกลับตีเส้นทางให้เขาอีกแบบหนึ่งตลอด 2 ทศวรรษก่อนหน้าที่ผ่านมา มหาวีร์กลับไม่มีลูกชายเลย มีก็เพียงแต่บุตรสาวอีกทั้ง 4 คน อยู่มาวันหนึ่งบุตรสาวคนโต 2 คน กลับไปวิวาทกับกรุ๊ปเด็กชายถึงกับขนาดลงไม้ลงมือ ทำให้มหาวีร์ใส่ใจได้ว่าบุตรสาวของเขานั่นแหละที่ได้ พรสวรรค์จากเขาไป ความมุ่งมั่นของเขาก็เลยกลับมาเจิดจ้าอีกรอบ มหาวีร์ก็เลยตั้งความมุ่งหมายไว้ว่าจะแปลงบุตรสาวให้ แปลงเป็นนักมวยปลุกปล้ำสุดยอดไม่ว่าจะมีปัญหาแค่ไหนม ากีดขวางก็ตาม

Complete name : Dangal.2016.One2loadup.com.mp4
Format : MPEG-4
Format profile : Base Media
Codec ID : isom (isom/avc1/iso6)
File size : 3.33 GiB
Duration : 2 h 41 min
Overall bit rate mode : Variable
Overall bit rate : 2 962 kb/s
Encoded date : UTC 2017-12-16 08:12:27
Tagged date : UTC 2017-12-16 08:12:27

Video
ID : 1
Format : AVC
Format/Info : Advanced Video Codec
Format profile : [email protected]
Format settings, CABAC : Yes
Format settings, RefFrames : 4 frames
Codec ID : avc1
Codec ID/Info : Advanced Video Coding
Duration : 2 h 41 min
Bit rate : 2 869 kb/s
Maximum bit rate : 41.8 Mb/s
Width : 1 920 pixels
Height : 784 pixels
Display aspect ratio : 2.40:1
Frame rate mode : Constant
Frame rate : 24.000 FPS
Color space : YUV
Chroma subsampling : 4:2:0
Bit depth : 8 bits
Scan type : Progressive
Bits/(Pixel*Frame) : 0.079
Stream size : 3.23 GiB (97%)
Title : Video
Writing library : x264 core 146 r2538 121396c
Encoding settings : cabac=1 / ref=3 / deblock=1:0:0 / analyse=0x3:0x113 / me=hex / subme=7 / psy=1 / psy_rd=1.00:0.00 / mixed_ref=1 / me_range=16 / chroma_me=1 / trellis=1 / 8x8dct=1 / cqm=0 / deadzone=21,11 / fast_pskip=1 / chroma_qp_offset=-2 / threads=6 / lookahead_threads=1 / sliced_threads=0 / nr=0 / decimate=1 / interlaced=0 / bluray_compat=0 / constrained_intra=0 / bframes=3 / b_pyramid=2 / b_adapt=1 / b_bias=0 / direct=1 / weightb=1 / open_gop=0 / weightp=2 / keyint=250 / keyint_min=24 / scenecut=40 / intra_refresh=0 / rc_lookahead=40 / rc=crf / mbtree=1 / crf=22.0 / qcomp=0.60 / qpmin=0 / qpmax=69 / qpstep=4 / ip_ratio=1.40 / aq=1:1.00
Encoded date : UTC 2017-12-16 08:12:27
Tagged date : UTC 2017-12-16 08:13:58

Audio
ID : 2
Format : AAC
Format/Info : Advanced Audio Codec
Format profile : LC
Codec ID : 40
Duration : 2 h 41 min
Bit rate mode : Variable
Bit rate : 89.2 kb/s
Maximum bit rate : 120 kb/s
Channel(s) : 2 channels
Channel positions : Front: L R
Sampling rate : 48.0 kHz
Frame rate : 46.875 FPS (1024 SPF)
Compression mode : Lossy
Stream size : 103 MiB (3%)
Title :
Encoded date : UTC 2017-12-16 03:08:47
Tagged date : UTC 2017-12-16 08:13:58

DOWNLOAD


PART01 |||| PART02 |||| PART03 |||| PART04

PART01 |||| PART02 |||| PART03 |||| PART04

PART01 |||| PART02 |||| PART03 |||| PART04

PART01 |||| PART02 |||| PART03 |||| PART04

PART01 |||| PART02 |||| PART03 |||| PART04


3 Comments
  1. Thawatchai
    Thawatchai says

    ยังไม่ได้อัพครับ

    1. Admin
      Admin says

      แก้ไขเรียบร้อยยฮ๊ะ

      1. Thawatchai
        Thawatchai says

        ขอบคุณครับ

Leave A Reply

อีเมล์ของคุณจะไม่แสดงให้เห็น Your email address will not be published.

%d bloggers like this: