[ฝรั่ง] Zombies (2018) ซอมบี้ นักเรียนหน้าใหม่กับสาวเชียร์ลีดเดอร์ [1080p] [พากย์ไทย + บรรยายไทยเนื้อเพลง] [เสียงไทย] [PANDAFILE]

2

โหลดหนัง Zombies (2018) ซอมบี้ นักเรียนหน้าใหม่กับสาวเชียร์ลีดเดอร์

Z-O-M-B-I-E-S | February 16, 2018 (United States) Summary: Students from Zombietown are transferred to a high school in a suburban town preoccupied with uniformity, traditions and pep rallies.
Countries: United StatesLanguages: English

เรื่องย่อ Zombies (2018) ซอมบี้ นักเรียนหน้าใหม่กับสาวเชียร์ลีดเดอร์

“ZOMBIES” ของดิสนีย์เป็นเรื่องราวที่เต็มไปด้วยดนตรีและการเต้นรำที่ตั้งอยู่ในโลกแห่งตำนานของ Seabrook ซึ่งเป็นชุมชนตัดคุกกี้ซึ่งเต็มไปด้วยความสอดคล้องกันอย่างน่าตื่นตาตื่นใจ 50 ปีหลังจากเปิดเผยเกี่ยวกับซอมบี้วันนี้ซอมบี้ก่อให้เกิดภัยคุกคามไม่ได้ แต่ต้องอาศัยอยู่ใน Zombietown ซึ่งเป็นเมืองที่แยกตัวออกจากชุมชนด้วยความคิดสร้างสรรค์ที่ไม่เหมือนใคร เมื่อซอมบี้ได้รับอนุญาตให้ลงทะเบียนเรียนในโรงเรียน มัธยม Seabrook แล้วเสน่ห์ของซอมบี้ที่มีพรสวรรค์ Zed ซึ่งมุ่งมั่นที่จะเล่นฟุตบอลพบปะกับ Addison คนแรกที่ฝันอยากเป็นเชียร์ลีดเดอร์ซึ่งเป็นรูปแบบที่ ดีที่สุดใน Seabrook Addison ใช้เวลาเป็นจำนวนมากในการตีสนิทกับ Zed และเพื่อนซอมบี้ของเขา แต่มาเรียนรู้ว่าซอมบี้และเชียร์ลีดเดอร์ไม่แตกต่างกันไปเท่าไร Zed และ Addison ทำงานร่วมกันเพื่อแสดงให้เห็นถึงสิ่งที่พวกเขาสามารถบรรลุได้เมื่อพวกเขายอมรับความแตกต่างของพวกเขาและเฉ ลิมฉลองสิ่งที่ทำให้พวกเขากลายเป็นชุมชน

Complete name : Zombies.2018.One2loadup.com.mkv
Format : Matroska
Format version : Version 4 / Version 2
File size : 3.28 GiB
Duration : 1 h 30 min
Overall bit rate : 5 205 kb/s
Encoded date : UTC 2018-04-12T09:16:52Z
Writing application : HandBrake 1.0.7 2017040900
Writing library : Lavf57.7.2

Video
ID : 1
Format : AVC
Format/Info : Advanced Video Codec
Format profile : [email protected]
Format settings : CABAC / 4 Ref Frames
Format settings, CABAC : Yes
Format settings, ReFrames : 4 frames
Codec ID : V_MPEG4/ISO/AVC
Duration : 1 h 30 min
Bit rate : 4 878 kb/s
Width : 1 920 pixels
Height : 1 080 pixels
Display aspect ratio : 16:9
Frame rate mode : Constant
Frame rate : 24.000 FPS
Color space : YUV
Chroma subsampling : 4:2:0
Bit depth : 8 bits
Scan type : Progressive
Bits/(Pixel*Frame) : 0.098
Stream size : 3.08 GiB (94%)
Writing library : x264 core 148 r2708 86b7198
Encoding settings : cabac=1 / ref=1 / deblock=1:0:0 / analyse=0x1:0x111 / me=hex / subme=2 / psy=1 / psy_rd=1.00:0.00 / mixed_ref=0 / me_range=16 / chroma_me=1 / trellis=0 / 8x8dct=0 / cqm=0 / deadzone=21,11 / fast_pskip=1 / chroma_qp_offset=0 / threads=10 / lookahead_threads=3 / sliced_threads=0 / nr=0 / decimate=1 / interlaced=0 / bluray_compat=0 / constrained_intra=0 / bframes=3 / b_pyramid=2 / b_adapt=1 / b_bias=0 / direct=1 / weightb=1 / open_gop=0 / weightp=1 / keyint=240 / keyint_min=24 / scenecut=40 / intra_refresh=0 / rc_lookahead=10 / rc=crf / mbtree=1 / crf=20.0 / qcomp=0.60 / qpmin=0 / qpmax=69 / qpstep=4 / vbv_maxrate=20000 / vbv_bufsize=25000 / crf_max=0.0 / nal_hrd=none / filler=0 / ip_ratio=1.40 / aq=1:1.00
Default : Yes
Forced : No
Color range : Limited
Color primaries : BT.709
Transfer characteristics : BT.709
Matrix coefficients : BT.709

Audio
ID : 2
Format : AC-3
Format/Info : Audio Coding 3
Codec ID : A_AC3
Duration : 1 h 30 min
Bit rate mode : Constant
Bit rate : 224 kb/s
Channel(s) : 2 channels
Channel positions : Front: L R
Sampling rate : 44.1 kHz
Frame rate : 28.711 FPS (1536 SPF)
Bit depth : 16 bits
Compression mode : Lossy
Delay relative to video : -6 ms
Stream size : 145 MiB (4%)
Title : Stereo
Service kind : Complete Main
Default : Yes
Forced : No

DOWNLOAD


PART01 |||| PART02 |||| PART03 |||| PART04

PART01 |||| PART02 |||| PART03 |||| PART04

PART01 |||| PART02 |||| PART03 |||| PART04

PART01 |||| PART02 |||| PART03 |||| PART04

PART01 |||| PART02 |||| PART03 |||| PART04


2 Comments
  1. Captain Barbossa
    Captain Barbossa says

    โหลดไม่ได้ครับ

    1. Admin
      Admin says

      แก้ไขเรียบร้อยฮ๊ะ

Leave A Reply

อีเมล์ของคุณจะไม่แสดงให้เห็น Your email address will not be published.

%d bloggers like this: