[ฝรั่ง] Zack Snyder’s Justice League (2021) แซ็ค สไนเดอร์ จัสติซ ลีก [1440p] [พากย์ไทย 2.0 + เสียงอังกฤษ 5.1] [บรรยายไทย + อังกฤษ] [เสียงไทย HBO + ซับไทย] [PANDAFILE]

0

โหลดหนัง Zack Snyder’s Justice League (2021) แซ็ค สไนเดอร์ จัสติซ ลีก

Zack Snyder's Justice League (2021) 242min | Action, Adventure, Fantasy | 18 March 2021 (USA) Summary: Zack Snyder's definitive director's cut of Justice League. Determined to ensure Superman's ultimate sacrifice was not in vain, Bruce Wayne aligns forces with Diana Prince with plans to recruit a team of metahumans to protect the world from an approaching threat of catastrophic proportions.
Countries: UK, USALanguages: English, Icelandic, French

เรื่องย่อ Zack Snyder’s Justice League (2021) แซ็ค สไนเดอร์ จัสติซ ลีก

เป็นการเล่าเรื่องหลังจากเหตุการณ์เสียสละของ ซูเปอร์แมน (เฮนรี่ คาวิลล์) ที่กอบกู้โลกจากหายนะที่เหล่าวายร้ายอย่าง สเต็ปเปนวูล์ฟ เดอซาด และดาร์คซายด์ ก่อขึ้น ทำให้แบทแมน (เบน แอฟเฟล็ก) ต้องขอความช่วยเหลือจาก วันเดอร์ วูแมน (กัล กาด็อต) เพื่อรวมทีมยอดมนุษย์ในการผนึกกำลังเผชิญหน้ากับศัตร ูและต่อสู้กับมหันตภัยร้ายครั้งใหญ่ที่กำลังจะมาถึง แต่การรวมทีมเหล่าฮีโร่ที่ไม่เคยมีมาก่อนอย่าง แบทแมน, วันเดอร์ วูแมน, อควาแมน (เจสัน โมมัว), ไซบอร์ก (เรย์ ฟิชเชอร์) และ เดอะ แฟลช (เอซรา มิลเลอร์) อาจสายเกินไปสำหรับการกอบกู้โลกจากเหล่าร้ายที่บุกจู่โจมในครั้งนี้

Complete name : Zack.Snyders.Justice.League.2021.1080p.WEBRip.EAC3.x264.THM.One2loadup.com.mkv
Format : Matroska
Format version : Version 4
File size : 6.36 GiB
Duration : 4 h 2 min
Overall bit rate : 3 758 kb/s
Movie name : Zack.Snyders.Justice.League.2021.1080p.WEBRip.EAC3.x264.THM.One2loadup.com
Encoded date : UTC 2021-04-11 12:37:32
Writing application : mkvmerge v50.0.0 (‘Awakenings’) 64-bit
Writing library : libebml v1.4.0 + libmatroska v1.6.2

Video
ID : 7
Format : AVC
Format/Info : Advanced Video Codec
Format profile : [email protected]
Format settings : CABAC / 4 Ref Frames
Format settings, CABAC : Yes
Format settings, Reference : 4 frames
Codec ID : V_MPEG4/ISO/AVC
Duration : 4 h 2 min
Bit rate : 2 500 kb/s
Width : 1 440 pixels
Height : 1 080 pixels
Display aspect ratio : 4:3
Frame rate mode : Constant
Frame rate : 23.976 (24000/1001) FPS
Original frame rate : 23.976 (23976/1000) FPS
Color space : YUV
Chroma subsampling : 4:2:0
Bit depth : 8 bits
Scan type : Progressive
Bits/(Pixel*Frame) : 0.067
Stream size : 4.23 GiB (67%)
Title : Zack.Snyders.Justice.League.2021.1080p.WEBRip.EAC3.x264.THM.One2loadup.com
Writing library : x264 core 152 r2851M ba24899
Encoding settings : cabac=1 / ref=4 / deblock=1:-1:-1 / analyse=0x3:0x113 / me=umh / subme=9 / psy=1 / psy_rd=1.00:0.15 / mixed_ref=1 / me_range=24 / chroma_me=1 / trellis=2 / 8x8dct=1 / cqm=0 / deadzone=21,11 / fast_pskip=1 / chroma_qp_offset=-3 / threads=16 / lookahead_threads=4 / sliced_threads=0 / nr=0 / decimate=1 / interlaced=0 / bluray_compat=0 / constrained_intra=0 / bframes=3 / b_pyramid=2 / b_adapt=2 / b_bias=0 / direct=3 / weightb=1 / open_gop=0 / weightp=2 / keyint=250 / keyint_min=25 / scenecut=40 / intra_refresh=0 / rc_lookahead=50 / rc=2pass / mbtree=1 / bitrate=2500 / ratetol=1.0 / qcomp=0.60 / qpmin=0 / qpmax=69 / qpstep=4 / cplxblur=20.0 / qblur=0.5 / vbv_maxrate=31250 / vbv_bufsize=31250 / nal_hrd=none / filler=0 / ip_ratio=1.40 / aq=3:1.00
Default : Yes
Forced : No

Audio #1
ID : 1
Format : E-AC-3 JOC
Format/Info : Enhanced AC-3 with Joint Object Coding
Commercial name : Dolby Digital Plus with Dolby Atmos
Codec ID : A_EAC3
Duration : 4 h 2 min
Bit rate mode : Constant
Bit rate : 768 kb/s
Channel(s) : 6 channels
Channel layout : L R C LFE Ls Rs
Sampling rate : 48.0 kHz
Frame rate : 31.250 FPS (1536 SPF)
Compression mode : Lossy
Stream size : 1.30 GiB (20%)
Title : [AC-3-English]
Language : English
Service kind : Complete Main
Default : No
Forced : No
Complexity index : 16
Number of dynamic objects : 15
Bed channel count : 1 channel
Bed channel configuration : LFE

Audio #2
ID : 2
Format : AC-3
Format/Info : Audio Coding 3
Commercial name : Dolby Digital
Codec ID : A_AC3
Duration : 4 h 2 min
Bit rate mode : Constant
Bit rate : 448 kb/s
Channel(s) : 2 channels
Channel layout : L R
Sampling rate : 48.0 kHz
Frame rate : 31.250 FPS (1536 SPF)
Compression mode : Lossy
Stream size : 776 MiB (12%)
Title : [AC-3-Thai]
Language : Thai
Service kind : Complete Main
Default : Yes
Forced : No

Text #1
ID : 3
Format : PGS
Muxing mode : zlib
Codec ID : S_HDMV/PGS
Codec ID/Info : Picture based subtitle format used on BDs/HD-DVDs
Duration : 4 h 1 min
Bit rate : 26.4 kb/s
Count of elements : 3812
Stream size : 45.6 MiB (1%)
Title : [EucrosiaUPC PGS]
Language : Thai
Default : Yes
Forced : No

Text #2
ID : 4
Format : PGS
Muxing mode : zlib
Codec ID : S_HDMV/PGS
Codec ID/Info : Picture based subtitle format used on BDs/HD-DVDs
Duration : 4 h 1 min
Bit rate : 24.1 kb/s
Count of elements : 3812
Stream size : 41.7 MiB (1%)
Title : [TH Sarabun New PGS]
Language : Thai
Default : No
Forced : No

Text #3
ID : 5
Format : PGS
Muxing mode : zlib
Codec ID : S_HDMV/PGS
Codec ID/Info : Picture based subtitle format used on BDs/HD-DVDs
Duration : 4 h 1 min
Bit rate : 24.2 kb/s
Count of elements : 3812
Stream size : 41.8 MiB (1%)
Title : [Cordia New PGS]
Language : Thai
Default : No
Forced : No

Text #4
ID : 6
Format : UTF-8
Codec ID : S_TEXT/UTF8
Codec ID/Info : UTF-8 Plain Text
Duration : 4 h 0 min
Bit rate : 40 b/s
Count of elements : 2814
Stream size : 70.7 KiB (0%)
Title : SDH
Language : English
Default : No
Forced : No

DOWNLOAD


PART01 |||| PART02 |||| PART03 |||| PART04 |||| PART05

PART01 |||| PART02 |||| PART03 |||| PART04 |||| PART05

PART01 |||| PART02 |||| PART03 |||| PART04 |||| PART05

PART01 |||| PART02 |||| PART03 |||| PART04 |||| PART05

PART01 |||| PART02 |||| PART03 |||| PART04 |||| PART05


Leave A Reply

Your email address will not be published.

%d bloggers like this: