[ฝรั่ง] Tom Clancy’s Without Remorse (2021) ลบรอยแค้น โดย ทอม แคลนซี [1080p] [พากย์อังกฤษ 5.1] [Soundtrack บรรยายไทย + อังกฤษ] [เสียงอังกฤษ + ซับไทย] [PANDAFILE]

0

โหลดหนัง Tom Clancy’s Without Remorse (2021) ลบรอยแค้น โดย ทอม แคลนซี

Tom Clancy's Without Remorse (2021) 109min | Action, Adventure, Thriller | 30 April 2021 (USA) Summary: John Clark, a Navy SEAL, goes on a path to avenge his wife's murder only to find himself inside of a larger conspiracy.
Countries: USALanguages: English

เรื่องย่อ Tom Clancy’s Without Remorse (2021) ลบรอยแค้น โดย ทอม แคลนซี

เรื่องราวของ จอห์น คลาร์ก (ไมเคิล บี. จอร์แดน) เป็นหน่วยรบพิเศษของกองทัพเรือสหรัฐ เขาได้ตามล้างแค้นแก๊งค้ายาเสพติดที่จับกุมคนรักของเขาไปข่มขืนและทรมานจนตาย ระหว่างนั้นก็กลับไปทำหน้าที่ผู้นำหน่วยเฉพาะกิจในการช่วยเหลือตัวประกันให้ซีไอเอไปพร้อมกัน เมื่อกลับมาล้างแค้นอีกครั้ง และกำลังจะจนมุมตำรวจ เขาก็ได้รับการช่วยเหลือจากซีไอเอปลอมแปลงการตายของตัวเองเพื่อเป็น จอห์น คลาร์ก

Complete name : Tom.Clancy.s.Without.Remorse.2021.1080p.WEB-DL.EAC3.x264.Subthai.One2loadup.com.mkv
Format : Matroska
Format version : Version 4
File size : 5.19 GiB
Duration : 1 h 49 min
Overall bit rate : 6 799 kb/s
Movie name : Tom.Clancy.s.Without.Remorse.2021.1080p.WEB-DL.EAC3.x264.Subthai.One2loadup.com
Encoded date : UTC 2021-04-30 01:18:57
Writing application : mkvmerge v50.0.0 (‘Awakenings’) 64-bit
Writing library : libebml v1.4.0 + libmatroska v1.6.2

Video
ID : 1
Format : AVC
Format/Info : Advanced Video Codec
Format profile : [email protected]
Format settings : CABAC / 4 Ref Frames
Format settings, CABAC : Yes
Format settings, Reference : 4 frames
Codec ID : V_MPEG4/ISO/AVC
Duration : 1 h 49 min
Bit rate mode : Constant
Bit rate : 6 540 kb/s
Nominal bit rate : 10 000 kb/s
Width : 1 920 pixels
Height : 800 pixels
Display aspect ratio : 2.40:1
Frame rate mode : Constant
Frame rate : 23.976 (24000/1001) FPS
Color space : YUV
Chroma subsampling : 4:2:0
Bit depth : 8 bits
Scan type : Progressive
Bits/(Pixel*Frame) : 0.178
Stream size : 4.99 GiB (96%)
Title : Tom.Clancy.s.Without.Remorse.2021.1080p.WEB-DL.EAC3.x264.Subthai.One2loadup.com
Default : Yes
Forced : No
Color range : Limited
Color primaries : BT.709
Transfer characteristics : BT.709
Matrix coefficients : BT.709

Audio
ID : 2
Format : E-AC-3
Format/Info : Enhanced AC-3
Commercial name : Dolby Digital Plus
Codec ID : A_EAC3
Duration : 1 h 49 min
Bit rate mode : Constant
Bit rate : 224 kb/s
Channel(s) : 2 channels
Channel layout : L R
Sampling rate : 48.0 kHz
Frame rate : 31.250 FPS (1536 SPF)
Compression mode : Lossy
Stream size : 175 MiB (3%)
Language : English
Service kind : Complete Main
Default : Yes
Forced : No

Text #1
ID : 3
Format : UTF-8
Codec ID : S_TEXT/UTF8
Codec ID/Info : UTF-8 Plain Text
Duration : 1 h 48 min
Bit rate : 47 b/s
Count of elements : 1436
Stream size : 38.1 KiB (0%)
Title : English
Language : English
Default : No
Forced : No

Text #2
ID : 4
Format : UTF-8
Codec ID : S_TEXT/UTF8
Codec ID/Info : UTF-8 Plain Text
Duration : 1 h 47 min
Bit rate : 82 b/s
Count of elements : 904
Stream size : 65.2 KiB (0%)
Title : Thai
Language : Thai
Default : No
Forced : No

Text #3
ID : 5
Format : PGS
Muxing mode : zlib
Codec ID : S_HDMV/PGS
Codec ID/Info : Picture based subtitle format used on BDs/HD-DVDs
Duration : 1 h 47 min
Bit rate : 20.8 kb/s
Count of elements : 1808
Stream size : 16.0 MiB (0%)
Title : Thai1080p.Angsana
Language : Thai
Default : No
Forced : No

Text #4
ID : 6
Format : PGS
Muxing mode : zlib
Codec ID : S_HDMV/PGS
Codec ID/Info : Picture based subtitle format used on BDs/HD-DVDs
Duration : 1 h 47 min
Bit rate : 20.8 kb/s
Count of elements : 1808
Stream size : 16.0 MiB (0%)
Title : Thai1080p.Angsana [ Yellow ]
Language : Thai
Default : No
Forced : No

Text #5
ID : 7
Format : UTF-8
Codec ID : S_TEXT/UTF8
Codec ID/Info : UTF-8 Plain Text
Duration : 1 h 48 min
Bit rate : 47 b/s
Count of elements : 1436
Stream size : 38.1 KiB (0%)
Language : English
Default : Yes
Forced : No

Text #6
ID : 8
Format : PGS
Muxing mode : zlib
Codec ID : S_HDMV/PGS
Codec ID/Info : Picture based subtitle format used on BDs/HD-DVDs
Duration : 1 h 48 min
Bit rate : 24.8 kb/s
Count of elements : 2872
Stream size : 19.2 MiB (0%)
Language : English
Default : No
Forced : No

DOWNLOAD


PART01 |||| PART02 |||| PART03 |||| PART04 |||| PART05 |||| PART06

PART01 |||| PART02 |||| PART03 |||| PART04 |||| PART05 |||| PART06

PART01 |||| PART02 |||| PART03 |||| PART04 |||| PART05 |||| PART06

PART01 |||| PART02 |||| PART03 |||| PART04 |||| PART05 |||| PART06

PART01 |||| PART02 |||| PART03 |||| PART04 |||| PART05 |||| PART06


Leave A Reply

Your email address will not be published.

%d bloggers like this: