[ฝรั่ง] Three Thousand Years of Longing (2022) ปาฏิหาริย์ตะเกียงวิเศษ 3,000 ปี [1080p] [ชนโรง] [พากยไทยโรง 2.0 + เสียงอังกฤษ 5.1] [บรรยายไทย +อังกฤษ] [เสียงไทยโรง + ซับไทย] [USERLOAD]

0

โหลดหนัง Three Thousand Years of Longing (2022) ปาฏิหาริย์ตะเกียงวิเศษ 3,000 ปี

Three Thousand Years of Longing | August 26, 2022 (United States) Summary: A lonely scholar, on a trip to Istanbul, discovers a Djinn who offers her three wishes in exchange for his freedom.
Countries: Australia, United StatesLanguages: English, Greek, Turkish, German, French

เรื่องย่อ Three Thousand Years of Longing (2022) ปาฏิหาริย์ตะเกียงวิเศษ 3,000 ปี

นักวิชาการผู้โดดเดี่ยวในการเดินทางไปอิสตันบูลได้ค้นพบจินน์ที่เสนอความปรารถนาสามข้อของเธอเพื่อแลกกับอิสรภาพของเขา ดร.อลิเธีย บินนี่ (ทิลดา สวินตัน) เป็นนักวิชาการ มีเนื้อหาเกี่ยวกับชีวิตและสิ่งมีชีวิตแห่งเหตุผล ขณะอยู่ในอิสตันบูลเพื่อเข้าร่วมการประชุม เธอได้พบกับจินน์ (ไอดริส เอลบา) ที่เสนอความปรารถนาสามข้อเพื่อแลกกับอิสรภาพของเขา สิ่งนี้นำเสนอสองปัญหา ประการแรก เธอสงสัยว่าเขาเป็นของจริงและประการที่สองเพราะเธอเป็นนักปราชญ์แห่งเรื่องราวและตำนาน เธอรู้เรื่องราวเตือนใจเกี่ยวกับความปรารถนาที่ผิดพลาดไปทั้งหมด จินน์วิงวอนคดีของเขาด้วยการเล่าเรื่องราวที่แปลกประ หลาดเกี่ยวกับอดีตของเขา ในที่สุดเธอก็ถูกล่อลวงและขอพรให้ทั้งคู่ประหลาดใจ

Complete name : CThree.Thousand.Years.of.Longing.2022.1080p.WEBRip.x264.THR.One2loadup.com.mkv
Format : Matroska
Format version : Version 4
File size : 4.99 GiB
Duration : 1 h 48 min
Overall bit rate : 6 594 kb/s
Movie name : Three.Thousand.Years.of.Longing.2022.1080p.WEBRip.x264.THR.One2loadup.com
Encoded date : UTC 2022-12-13 02:17:36
Writing application : mkvmerge v68.0.0.1 (‘The Curtain’) 64-bit
Writing library : libebml v1.4.2 + libmatroska v1.6.4
Cover : Yes
Attachments : cover

Video
ID : 1
Format : AVC
Format/Info : Advanced Video Codec
Format profile : Main@L4
Format settings : CABAC / 1 Ref Frames
Format settings, CABAC : Yes
Format settings, Reference : 1 frame
Format settings, GOP : M=1, N=25
Codec ID : V_MPEG4/ISO/AVC
Duration : 1 h 48 min
Bit rate mode : Constant
Bit rate : 6 113 kb/s
Width : 1 920 pixels
Height : 800 pixels
Display aspect ratio : 2.40:1
Frame rate mode : Constant
Frame rate : 23.976 (24000/1001) FPS
Color space : YUV
Chroma subsampling : 4:2:0
Bit depth : 8 bits
Scan type : Progressive
Bits/(Pixel*Frame) : 0.166
Stream size : 4.63 GiB (93%)
Title : Three.Thousand.Years.of.Longing.2022.1080p.WEBRip.x264.THR.One2loadup.com
Language : English
Default : Yes
Forced : No

Audio #1
ID : 2
Format : AAC LC
Format/Info : Advanced Audio Codec Low Complexity
Codec ID : A_AAC-2
Duration : 1 h 48 min
Bit rate : 224 kb/s
Channel(s) : 6 channels
Channel layout : C L R Ls Rs LFE
Sampling rate : 48.0 kHz
Frame rate : 46.875 FPS (1024 SPF)
Compression mode : Lossy
Stream size : 174 MiB (3%)
Title : En.AAC_224 kbs.6 channels
Language : English
Default : Yes
Forced : No

Audio #2
ID : 3
Format : AC-3
Format/Info : Audio Coding 3
Commercial name : Dolby Digital
Codec ID : A_AC3
Duration : 1 h 48 min
Bit rate mode : Constant
Bit rate : 192 kb/s
Channel(s) : 2 channels
Channel layout : L R
Sampling rate : 48.0 kHz
Frame rate : 31.250 FPS (1536 SPF)
Compression mode : Lossy
Stream size : 149 MiB (3%)
Title : Th.2.0.AC3.192k
Language : Thai
Service kind : Complete Main
Default : Yes
Forced : No

Text #1
ID : 4
Format : PGS
Muxing mode : zlib
Codec ID : S_HDMV/PGS
Codec ID/Info : Picture based subtitle format used on BDs/HD-DVDs
Duration : 1 h 40 min
Bit rate : 42.6 kb/s
Count of elements : 2650
Stream size : 30.6 MiB (1%)
Title : Th.3.100.93.White
Language : Thai
Default : No
Forced : No

Text #2
ID : 5
Format : PGS
Muxing mode : zlib
Codec ID : S_HDMV/PGS
Codec ID/Info : Picture based subtitle format used on BDs/HD-DVDs
Duration : 1 h 39 min
Bit rate : 38.9 kb/s
Count of elements : 2500
Stream size : 27.8 MiB (1%)
Title : EN.110.3.83.Yellow
Language : English
Default : No
Forced : No

Text #3
ID : 6
Format : PGS
Muxing mode : zlib
Codec ID : S_HDMV/PGS
Codec ID/Info : Picture based subtitle format used on BDs/HD-DVDs
Duration : 1 h 40 min
Bit rate : 48.8 kb/s
Count of elements : 3128
Stream size : 35.1 MiB (1%)
Title : EN.SDH.110.3.83.Blue
Language : English
Default : No
Forced : No

DOWNLOAD


PART01 |||| PART02 |||| PART03 |||| PART04 |||| PART05

PART01 |||| PART02 |||| PART03 |||| PART04 |||| PART05

PART01 |||| PART02 |||| PART03 |||| PART04 |||| PART05

PART01 |||| PART02 |||| PART03 |||| PART04 |||| PART05

PART01 |||| PART02 |||| PART03 |||| PART04 |||| PART05


Leave A Reply

อีเมล์ของคุณจะไม่แสดงให้เห็น Your email address will not be published.

%d bloggers like this: