[ฝรั่ง] The Other Zoey (2023) โซอี้ที่รัก [1080p] [พากย์อังกฤษ 5.1] [Soundtrack บรรยายไทย + อังกฤษ] [เสียงอังกฤษ + ซับไทย] [PANDAFILE]

0

โหลดหนัง The Other Zoey (2023) โซอี้ที่รัก

The Other Zoey | November 10, 2023 (United States) Summary: Zoey Miller, a super smart computer nerd who is uninterested in romantic love, has her life turned upside down when Zack, the school's soccer star, gets amnesia and mistakes Zoey for his gir... Read all
Countries: United StatesLanguages: English

เรื่องย่อ The Other Zoey (2023) โซอี้ที่รัก

โซอี้ มิลเลอร์ (โจเซฟีน แลงก์ฟอร์ด) นักศึกษาเอกคอมพิวเตอร์อัจฉริยะผู้ไม่สนใจความรักโรแมนติก ชีวิตของเธอพลิกผันเมื่อแซ็ค (ดรูว์ สตาร์คีย์) นักฟุตบอลชื่อดังของมหาวิทยาลัยเกิดความจำเสื่อมและเข้าใจผิดว่าโซอี้ เป็นแฟนของเขา

Complete name : The.Other.Zoey.2023.1080p.AMZN.WEB-DL.EAC3.x264.Subthai.One2laodup.com.mkv
Format : Matroska
Format version : Version 4
File size : 4.92 GiB
Duration : 1 h 31 min
Overall bit rate : 7 689 kb/s
Movie name : The.Other.Zoey.2023.1080p.AMZN.WEB-DL.EAC3.x264.Subthai.One2laodup.com
Encoded date : UTC 2023-11-01 01:13:01
Writing application : mkvmerge v80.0 (‘Roundabout’) 64-bit
Writing library : libebml v1.4.4 + libmatroska v1.7.1

Video
ID : 1
Format : AVC
Format/Info : Advanced Video Codec
Format profile : High@L4
Format settings : CABAC / 4 Ref Frames
Format settings, CABAC : Yes
Format settings, Reference : 4 frames
Codec ID : V_MPEG4/ISO/AVC
Duration : 1 h 31 min
Bit rate mode : Constant
Bit rate : 7 047 kb/s
Nominal bit rate : 10 000 kb/s
Width : 1 920 pixels
Height : 1 080 pixels
Display aspect ratio : 16:9
Frame rate mode : Constant
Frame rate : 23.976 (24000/1001) FPS
Color space : YUV
Chroma subsampling : 4:2:0
Bit depth : 8 bits
Scan type : Progressive
Bits/(Pixel*Frame) : 0.142
Stream size : 4.51 GiB (92%)
Title : The.Other.Zoey.2023.1080p.AMZN.WEB-DL.EAC3.x264.Subthai.One2laodup.com
Default : Yes
Forced : No
Color range : Limited
Color primaries : BT.709
Transfer characteristics : BT.709
Matrix coefficients : BT.709

Audio
ID : 2
Format : E-AC-3
Format/Info : Enhanced AC-3
Commercial name : Dolby Digital Plus
Codec ID : A_EAC3
Duration : 1 h 31 min
Bit rate mode : Constant
Bit rate : 640 kb/s
Channel(s) : 6 channels
Channel layout : L R C LFE Ls Rs
Sampling rate : 48.0 kHz
Frame rate : 31.250 FPS (1536 SPF)
Compression mode : Lossy
Stream size : 419 MiB (8%)
Language : English
Service kind : Complete Main
Default : Yes
Forced : No

Text #1
ID : 3
Format : UTF-8
Codec ID : S_TEXT/UTF8
Codec ID/Info : UTF-8 Plain Text
Duration : 1 h 30 min
Bit rate : 182 b/s
Count of elements : 1215
Stream size : 121 KiB (0%)
Language : Thai
Default : No
Forced : No

Text #2
ID : 4
Format : UTF-8
Codec ID : S_TEXT/UTF8
Codec ID/Info : UTF-8 Plain Text
Duration : 1 h 26 min
Bit rate : 96 b/s
Count of elements : 1854
Stream size : 61.0 KiB (0%)
Title : SDH
Language : English
Default : No
Forced : No

DOWNLOAD


PART01 |||| PART02 |||| PART03 |||| PART04 |||| PART05 |||| PART06

PART01 |||| PART02 |||| PART03 |||| PART04 |||| PART05 |||| PART06

PART01 |||| PART02 |||| PART03 |||| PART04 |||| PART05 |||| PART06

PART01 |||| PART02 |||| PART03 |||| PART04 |||| PART05 |||| PART06

PART01 |||| PART02 |||| PART03 |||| PART04 |||| PART05 |||| PART06


Leave A Reply

อีเมล์ของคุณจะไม่แสดงให้เห็น Your email address will not be published.

%d