[ฝรั่ง] The Dry (2020) คืนถิ่นสืบ [1080p] [พากย์อังกฤษ 5.1] [Soundtrack บรรยายไทย + อังกฤษ] [เสียงอังกฤษ + ซับไทย] [PANDAFILE]

0

โหลดหนัง The Dry (2020) คืนถิ่นสืบ

The Dry (2020) 117min | Crime, Drama, Mystery, Thriller | May 21, 2021 (United States) Summary:
Countries: Australia, United StatesLanguages: English

เรื่องย่อ The Dry (2020) คืนถิ่นสืบ

เมื่อเจ้าหน้าที่สหพันธรัฐ แอรอน ฟอล์ก (อีริก บานา) กลับมาที่บ้านเกิดของเขาหลังจากหายไปกว่ายี่สิบปีเพื่อร่วมงานศพของลุคเพื่อนในวัยเด็ก ซึ่งถูกกล่าวหาว่าฆ่าภรรยาและลูกของเขาก่อนที่จะฆ่าตัวตาย เขาตกลงอย่างไม่เต็มใจที่จะอยู่และสอบสวนคดีนี้ เขาได้เปิดบาดแผลเก่า นั่นคือการเสียชีวิตของเอลลี่ ดีคอน วัย 17 ปีเมื่อยี่สิบปีก่อน ฟอล์กเริ่มสงสัยว่าคดีทั้งสองนี้เชื่อมโยงกัน ขณะที่เขาพยายามดิ้นรนเพื่อพิสูจน์ความจริงไม่เพียงแต่ความบริสุทธิ์ของลุคเท่านั้น แต่ยังรวมถึงความบริสุทธิ์ของเขาด้วย ฟอล์กพบว่าตัวเองกำลังเผชิญกับอคติที่มีต่อเขาและควา มโกรธแค้นของชุมชนที่น่าหวาดกลัวเอาไว้

Complete name : The.Dry.2020.1080p.BluRay.DTS.x264.Subthai.One2loadup.com.mkv
Format : Matroska
Format version : Version 4
File size : 4.29 GiB
Duration : 1 h 57 min
Overall bit rate : 5 236 kb/s
Movie name : The.Dry.2020.1080p.BluRay.DTS.x264.Subthai.One2loadup.com
Encoded date : UTC 2021-07-12 12:15:55
Writing application : mkvmerge v59.0.0 (‘Shining Star’) 64-bit
Writing library : libebml v1.4.2 + libmatroska v1.6.4

Video
ID : 1
Format : AVC
Format/Info : Advanced Video Codec
Format profile : [email protected]
Format settings : CABAC / 3 Ref Frames
Format settings, CABAC : Yes
Format settings, Reference : 3 frames
Codec ID : V_MPEG4/ISO/AVC
Duration : 1 h 57 min
Bit rate : 3 705 kb/s
Width : 1 920 pixels
Height : 802 pixels
Display aspect ratio : 2.40:1
Frame rate mode : Constant
Frame rate : 24.000 FPS
Color space : YUV
Chroma subsampling : 4:2:0
Bit depth : 8 bits
Scan type : Progressive
Bits/(Pixel*Frame) : 0.100
Stream size : 3.04 GiB (71%)
Title : The.Dry.2020.1080p.BluRay.DTS.x264.Subthai.One2loadup.com
Language : English
Default : Yes
Forced : No

Audio
ID : 2
Format : DTS
Format/Info : Digital Theater Systems
Codec ID : A_DTS
Duration : 1 h 57 min
Bit rate mode : Constant
Bit rate : 1 509 kb/s
Channel(s) : 6 channels
Channel layout : C L R Ls Rs LFE
Sampling rate : 48.0 kHz
Frame rate : 93.750 FPS (512 SPF)
Bit depth : 16 bits
Compression mode : Lossy
Stream size : 1.24 GiB (29%)
Title : DTS English
Language : English
Default : Yes
Forced : No

Text #1
ID : 3
Format : VobSub
Muxing mode : zlib
Codec ID : S_VOBSUB
Codec ID/Info : Picture based subtitle format used on DVDs
Duration : 1 h 49 min
Bit rate : 10.7 kb/s
Count of elements : 1313
Stream size : 8.40 MiB (0%)
Title : Sub Thai 1080p
Language : Thai
Default : No
Forced : No

Text #2
ID : 4
Format : UTF-8
Codec ID : S_TEXT/UTF8
Codec ID/Info : UTF-8 Plain Text
Duration : 1 h 49 min
Bit rate : 109 b/s
Count of elements : 1313
Stream size : 88.4 KiB (0%)
Title : Sub Thai SRT
Language : Thai
Default : No
Forced : No

Text #3
ID : 5
Format : PGS
Muxing mode : zlib
Codec ID : S_HDMV/PGS
Codec ID/Info : Picture based subtitle format used on BDs/HD-DVDs
Duration : 1 h 49 min
Bit rate : 29.9 kb/s
Count of elements : 2626
Stream size : 23.5 MiB (1%)
Title : Sub Thai PGS
Language : Thai
Default : Yes
Forced : No

Text #4
ID : 6
Format : UTF-8
Codec ID : S_TEXT/UTF8
Codec ID/Info : UTF-8 Plain Text
Duration : 1 h 53 min
Bit rate : 47 b/s
Count of elements : 1351
Stream size : 39.5 KiB (0%)
Title : Sub English SRT
Language : English
Default : No
Forced : No

Menu
00:00:00.000 : Chapter 01
00:10:18.125 : Chapter 02
00:18:41.250 : Chapter 03
00:27:51.458 : Chapter 04
00:37:40.208 : Chapter 05
00:45:57.000 : Chapter 06
00:55:04.042 : Chapter 07
01:03:10.875 : Chapter 08
01:15:37.542 : Chapter 09
01:24:29.583 : Chapter 10
01:32:51.208 : Chapter 11
01:45:40.667 : Chapter 12

DOWNLOAD


PART01 |||| PART02 |||| PART03 |||| PART04 |||| PART05

PART01 |||| PART02 |||| PART03 |||| PART04 |||| PART05

PART01 |||| PART02 |||| PART03 |||| PART04 |||| PART05

PART01 |||| PART02 |||| PART03 |||| PART04 |||| PART05

PART01 |||| PART02 |||| PART03 |||| PART04 |||| PART05


Leave A Reply

อีเมล์ของคุณจะไม่แสดงให้เห็น Your email address will not be published.

%d bloggers like this: