[ฝรั่ง] The Comeback Trail (2020) [1080p] [พากย์อังกฤษ 5.1] [Soundtrack บรรยายไทย + อังกฤษ] [เสียงอังกฤษ + ซับไทย] [PANDAFILE]

0

โหลดหนัง The Comeback Trail (2020)

The Comeback Trail (2020) 104min | Comedy, Crime | 2021 (USA) Summary: Two movie producers who owe money to the mob set up their aging movie star for an insurance scam to try and save themselves. But they wind up getting more than they ever imagined.
Countries: USA, UKLanguages: English

เรื่องย่อ The Comeback Trail (2020)

เป็นผลงานสร้างใหม่จากฉบับของปี 1982 เล่าเรื่องของแม็กซ์(โรเบิร์ต เดอ นิโร) ผู้อำนวยการสร้างหนังที่จำเป็นต้องใช้หนี้ก้อนโตให้เจ้าพ่อ(มอร์แกน ฟรีแมน) เขาจึงวางแผนที่จะจ้างดาราวัยดึก ดู๊ค มอนทาน่า(ทอมมี ลี โจนส์) มาเล่นหนังคาวบอยทุนต่ำของตัวเอง เพื่อหวังที่จะฆ่าเขาในระหว่างการถ่ายทำและได้เงินประกันมาจ่ายหนี้ แต่ทว่าเรื่องราวกลับไปไกลกว่าที่จินตนาการเอาไว้

Complete name : The.Comeback.Trail.2020.1080p.HDTV.AC3.x264.Subthai.One2loadup.com.mkv
Format : Matroska
Format version : Version 4
File size : 4.93 GiB
Duration : 1 h 43 min
Overall bit rate : 6 842 kb/s
Movie name : The.Comeback.Trail.2020.1080p.HDTV.AC3.x264.Subthai.One2loadup.com
Encoded date : UTC 2021-04-27 15:05:59
Writing application : mkvmerge v52.0.0 (‘Secret For The Mad’) 64-bit
Writing library : libebml v1.4.1 + libmatroska v1.6.2
Cover : Yes

Video
ID : 1
Format : AVC
Format/Info : Advanced Video Codec
Format profile : [email protected]
Format settings : CABAC / 2 Ref Frames
Format settings, CABAC : Yes
Format settings, Reference : 2 frames
Codec ID : V_MPEG4/ISO/AVC
Duration : 1 h 43 min
Bit rate : 6 455 kb/s
Width : 1 920 pixels
Height : 1 080 pixels
Display aspect ratio : 16:9
Frame rate mode : Constant
Frame rate : 24.000 FPS
Color space : YUV
Chroma subsampling : 4:2:0
Bit depth : 8 bits
Scan type : Progressive
Bits/(Pixel*Frame) : 0.130
Stream size : 4.65 GiB (94%)
Title : The.Comeback.Trail.2020.1080p.HDTV.AC3.x264.Subthai.One2loadup.com
Writing library : x264 core 155 r2901 7d0ff22
Default : Yes
Forced : No
Color range : Limited
Color primaries : BT.709
Transfer characteristics : BT.709
Matrix coefficients : BT.709

Audio
ID : 2
Format : AC-3
Format/Info : Audio Coding 3
Commercial name : Dolby Digital
Codec ID : A_AC3
Duration : 1 h 43 min
Bit rate mode : Constant
Bit rate : 384 kb/s
Channel(s) : 6 channels
Channel layout : L R C LFE Ls Rs
Sampling rate : 48.0 kHz
Frame rate : 31.250 FPS (1536 SPF)
Compression mode : Lossy
Stream size : 283 MiB (6%)
Title : English AC-3 (5.1)
Language : English
Service kind : Complete Main
Default : Yes
Forced : Yes

Text #1
ID : 3
Format : ASS
Codec ID : S_TEXT/ASS
Codec ID/Info : Advanced Sub Station Alpha
Duration : 1 h 39 min
Bit rate : 239 b/s
Count of elements : 1473
Compression mode : Lossless
Stream size : 175 KiB (0%)
Title : Thai SSA
Language : Thai
Default : Yes
Forced : No

Text #2
ID : 4
Format : ASS
Codec ID : S_TEXT/ASS
Codec ID/Info : Advanced Sub Station Alpha
Duration : 1 h 39 min
Bit rate : 124 b/s
Count of elements : 1473
Compression mode : Lossless
Stream size : 90.7 KiB (0%)
Title : English SSA
Language : English
Default : No
Forced : No

DOWNLOAD


PART01 |||| PART02 |||| PART03 |||| PART04 |||| PART05 |||| PART06

PART01 |||| PART02 |||| PART03 |||| PART04 |||| PART05 |||| PART06

PART01 |||| PART02 |||| PART03 |||| PART04 |||| PART05 |||| PART06

PART01 |||| PART02 |||| PART03 |||| PART04 |||| PART05 |||| PART06

PART01 |||| PART02 |||| PART03 |||| PART04 |||| PART05 |||| PART06


Leave A Reply

Your email address will not be published.

%d bloggers like this: