[ฝรั่ง] The Beach House (2019) บ้านหาดสยอง [1080p] [พากย์ไทย 2.0 + เสียงอังกฤษ 2.0] [บรรยายไทยฝัง] [เสียงไทยมาสเตอร์ + ซับไทยฝัง] [USERLOAD]

0

โหลดหนัง The Beach House (2019) บ้านหาดสยอง

The Beach House 88min | Drama, Horror, Mystery, Sci-Fi | July 9, 2020 (United States) Summary: A romantic getaway for two troubled college sweethearts turns into a struggle for survival when unexpected guests - and the surrounding environment - exhibit signs of a mysterious infection.
Countries: United StatesLanguages: English

เรื่องย่อ The Beach House (2019) บ้านหาดสยอง

หนุ่มสาวคู่หนึ่งมุ่งหน้าไปที่บ้านริมชายหาดเพื่อใช้เวลาที่มีอยู่ด้วยกันและพบว่านี่คือที่ๆทำให้มีความสุข ช่วงเวลาแห่งความสุขของพวกเขาถูกขัดจังหวะด้วยการมาถึงของแขกที่ไม่คาดคิดครั้นเมื่อพวกเขาไม่ได้เจอเพื่อนบ้านรอบๆ และราวกับว่ามันยังไม่เลวร้ายพอหมอกลึกลับพร้อมกับเชื้อลึกลับกำลังค่อยๆแพร่กระจายไปรอบ ๆ

Complete name : The.Beach.House.2019.1080p.HDTV.AC3.x264.THM.One2loadup.com.mkv
Format : Matroska
Format version : Version 4
File size : 3.70 GiB
Duration : 1 h 23 min
Overall bit rate : 6 312 kb/s
Movie name : The.Beach.House.2019.1080p.HDTV.AC3.x264.THM.One2loadup.com
Encoded date : UTC 2021-08-21 05:54:36
Writing application : mkvmerge v60.0.0 (‘Are We Copies?’) 64-bit
Writing library : libebml v1.4.2 + libmatroska v1.6.4
Cover : Yes
Attachments : cover

Video
ID : 1
Format : AVC
Format/Info : Advanced Video Codec
Format profile : [email protected]
Format settings : CABAC / 1 Ref Frames
Format settings, CABAC : Yes
Format settings, Reference : 1 frame
Format settings, GOP : M=1, N=25
Codec ID : V_MPEG4/ISO/AVC
Duration : 1 h 23 min
Bit rate mode : Constant
Bit rate : 5 926 kb/s
Width : 1 920 pixels
Height : 1 080 pixels
Display aspect ratio : 16:9
Frame rate mode : Constant
Frame rate : 29.970 (30000/1001) FPS
Color space : YUV
Chroma subsampling : 4:2:0
Bit depth : 8 bits
Scan type : Progressive
Bits/(Pixel*Frame) : 0.095
Stream size : 3.47 GiB (94%)
Title : The.Beach.House.2019.1080p.HDTV.AC3.x264.THM.One2loadup.com
Language : English
Default : Yes
Forced : No

Audio #1
ID : 2
Format : AC-3
Format/Info : Audio Coding 3
Commercial name : Dolby Digital
Codec ID : A_AC3
Duration : 1 h 23 min
Bit rate mode : Constant
Bit rate : 192 kb/s
Channel(s) : 2 channels
Channel layout : L R
Sampling rate : 48.0 kHz
Frame rate : 31.250 FPS (1536 SPF)
Compression mode : Lossy
Stream size : 115 MiB (3%)
Title : Th.2.0.AC3.192k
Language : Thai
Service kind : Complete Main
Default : Yes
Forced : No

Audio #2
ID : 3
Format : AAC LC
Format/Info : Advanced Audio Codec Low Complexity
Codec ID : A_AAC-2
Duration : 1 h 23 min
Bit rate : 192 kb/s
Channel(s) : 2 channels
Channel layout : L R
Sampling rate : 44.1 kHz
Frame rate : 43.066 FPS (1024 SPF)
Compression mode : Lossy
Stream size : 117 MiB (3%)
Title : En.2.0.AAC.192k
Language : English
Default : No
Forced : No

DOWNLOAD


PART01 |||| PART02 |||| PART03 |||| PART04 

PART01 |||| PART02 |||| PART03 |||| PART04

PART01 |||| PART02 |||| PART03 |||| PART04

PART01 |||| PART02 |||| PART03 |||| PART04

PART01 |||| PART02 |||| PART03 |||| PART04


Leave A Reply

อีเมล์ของคุณจะไม่แสดงให้เห็น Your email address will not be published.

%d bloggers like this: