[MINI Super-HQ] Tag (2018) ก๊วนแท็คเกม เพื่อนแท้ แพ้ไม่เป็น [1080p] [พากย์ไทย 2.0 + เสียงอังกฤษ DTS] [บรรยายไทย + อังกฤษ] [เสียงไทย มาสเตอร์ + ซับไทย] [PANDAFILE]

0

โหลดหนัง Tag (2018) ก๊วนแท็คเกม เพื่อนแท้ แพ้ไม่เป็น

Tag (2018) 1h 40min | Comedy | 28 June 2018 (Netherlands) Summary: A small group of former classmates organize an elaborate, annual game of tag that requires some to travel all over the country.
Countries: USALanguages: English, Spanish

เรื่องย่อ Tag (2018) ก๊วนแท็คเกม เพื่อนแท้ แพ้ไม่เป็น

ภาพยนตร์คอเมดี้แนวใหม่ Tag สร้างจากเรื่องจริง จะทำให้เราได้เห็น ว่าชายบางคนจะยืนหยัดเป็นผู้เหลือรอดคนสุดท้ายได้นานแค่ไหน! ทุก ๆ ปี เป็นระยะเวลา 1 เดือน กลุ่มเพื่อนคู่กัด 5 คนจะออกวิ่งสู่เกมไล่จับอันดุเดือดไร้กติกาที่ใช้ทุกวิธีเพื่อเอาชนะคู่ต่อสู้ เกมที่พวกเขาเล่นกันมาตั้งแต่ประถมโดยการเดิมพันด้วยชีวิต, การงาน และความสัมพันธ์ เพื่อทำให้อีกฝ่ายพ่ายแพ้ให้ได้ ทันทีที่สัญญาณแห่งสงครามประกาศขึ้นแกเป็น ยักษ์! ในปีนี้ เกมบังเอิญตรงกับงานแต่งงานของสมาชิกผู้ไม่เคยพ่ายแพ้ ซึ่งทำให้เขาตกเป็นเป้าหมายที่ง่ายที่สุด แต่เขารู้ว่าคนอื่น ๆ กำลังมา… และเขาก็เตรียมพร้อมรับมือไว้แล้ว!!

Complete name : [MINI Super-HQ]_Tag.2018.1080p.BrRip.DTS.x264.THM.One2loadup.com.mkv
Format : Matroska
Format version : Version 4
File size : 3.93 GiB
Duration : 1 h 40 min
Overall bit rate : 5 598 kb/s
Movie name : [MINI Super-HQ]_Tag.2018.1080p.BrRip.DTS.x264.THM.One2loadup.com
Encoded date : UTC 2020-05-18 04:26:55
Writing application : mkvmerge v46.0.0 (‘No Deeper Escape’) 64-bit
Writing library : libebml v1.3.10 + libmatroska v1.5.2

Video
ID : 1
Format : AVC
Format/Info : Advanced Video Codec
Format profile : [email protected]
Format settings : CABAC / 4 Ref Frames
Format settings, CABAC : Yes
Format settings, ReFrames : 4 frames
Codec ID : V_MPEG4/ISO/AVC
Duration : 1 h 40 min
Bit rate : 4 555 kb/s
Width : 1 920 pixels
Height : 804 pixels
Display aspect ratio : 2.40:1
Frame rate mode : Constant
Frame rate : 23.976 (24000/1001) FPS
Color space : YUV
Chroma subsampling : 4:2:0
Bit depth : 8 bits
Scan type : Progressive
Bits/(Pixel*Frame) : 0.123
Stream size : 3.20 GiB (81%)
Title : [MINI Super-HQ]_Tag.2018.1080p.BrRip.DTS.x264.THM.One2loadup.com
Writing library : x264 core 130 r2273 b3065e6
Encoding settings : cabac=1 / ref=3 / deblock=1:0:0 / analyse=0x3:0x113 / me=umh / subme=11 / psy=1 / psy_rd=1.00:0.00 / mixed_ref=1 / me_range=48 / chroma_me=1 / trellis=2 / 8x8dct=1 / cqm=0 / deadzone=21,11 / fast_pskip=1 / chroma_qp_offset=-2 / threads=10 / lookahead_threads=1 / sliced_threads=0 / nr=0 / decimate=1 / interlaced=0 / bluray_compat=0 / constrained_intra=0 / bframes=3 / b_pyramid=2 / b_adapt=1 / b_bias=0 / direct=1 / weightb=1 / open_gop=0 / weightp=2 / keyint=240 / keyint_min=24 / scenecut=40 / intra_refresh=0 / rc_lookahead=40 / rc=2pass / mbtree=1 / bitrate=4555 / ratetol=1.0 / qcomp=0.60 / qpmin=0 / qpmax=69 / qpstep=4 / cplxblur=20.0 / qblur=0.5 / ip_ratio=1.40 / aq=1:1.00
Language : English
Default : Yes
Forced : No
Color range : Limited
Color primaries : BT.709
Transfer characteristics : BT.709
Matrix coefficients : BT.709

Audio #1
ID : 2
Format : AC-3
Format/Info : Audio Coding 3
Commercial name : Dolby Digital
Codec ID : A_AC3
Duration : 1 h 40 min
Bit rate mode : Constant
Bit rate : 192 kb/s
Channel(s) : 2 channels
Channel layout : L R
Sampling rate : 48.0 kHz
Frame rate : 31.250 FPS (1536 SPF)
Bit depth : 16 bits
Compression mode : Lossy
Stream size : 138 MiB (3%)
Title : Thai Master 2.0 @192 Kbps
Language : Thai
Service kind : Complete Main
Default : Yes
Forced : No

Audio #2
ID : 3
Format : DTS
Format/Info : Digital Theater Systems
Codec ID : A_DTS
Duration : 1 h 40 min
Bit rate mode : Constant
Bit rate : 755 kb/s
Channel(s) : 6 channels
Channel layout : C L R Ls Rs LFE
Sampling rate : 48.0 kHz
Frame rate : 93.750 FPS (512 SPF)
Bit depth : 24 bits
Compression mode : Lossy
Stream size : 543 MiB (13%)
Title : English DTS
Language : English
Default : No
Forced : No

Text #1
ID : 4
Format : VobSub
Muxing mode : zlib
Codec ID : S_VOBSUB
Codec ID/Info : Picture based subtitle format used on DVDs
Duration : 19 s 975 ms
Bit rate : 9 242 b/s
Count of elements : 3
Stream size : 22.5 KiB (0%)
Language : Thai
Default : Yes
Forced : Yes

Text #2
ID : 5
Format : VobSub
Muxing mode : zlib
Codec ID : S_VOBSUB
Codec ID/Info : Picture based subtitle format used on DVDs
Duration : 1 h 40 min
Bit rate : 4 144 b/s
Count of elements : 1956
Stream size : 2.97 MiB (0%)
Title : Thai 480p
Language : Thai
Default : No
Forced : No

Text #3
ID : 6
Format : VobSub
Muxing mode : zlib
Codec ID : S_VOBSUB
Codec ID/Info : Picture based subtitle format used on DVDs
Duration : 1 h 40 min
Bit rate : 7 914 b/s
Count of elements : 1956
Stream size : 5.66 MiB (0%)
Title : Thai 720p
Language : Thai
Default : No
Forced : No

Text #4
ID : 7
Format : VobSub
Muxing mode : zlib
Codec ID : S_VOBSUB
Codec ID/Info : Picture based subtitle format used on DVDs
Duration : 1 h 40 min
Bit rate : 13.2 kb/s
Count of elements : 1956
Stream size : 9.48 MiB (0%)
Title : Thai 1080p
Language : Thai
Default : No
Forced : No

Text #5
ID : 8
Format : VobSub
Muxing mode : zlib
Codec ID : S_VOBSUB
Codec ID/Info : Picture based subtitle format used on DVDs
Duration : 1 h 40 min
Bit rate : 13.2 kb/s
Count of elements : 1956
Stream size : 9.48 MiB (0%)
Title : Thai 1080p Yellow
Language : Thai
Default : No
Forced : No

Text #6
ID : 9
Format : VobSub
Muxing mode : zlib
Codec ID : S_VOBSUB
Codec ID/Info : Picture based subtitle format used on DVDs
Duration : 1 h 40 min
Bit rate : 13.2 kb/s
Count of elements : 1956
Stream size : 9.48 MiB (0%)
Title : Thai 1080p Out
Language : Thai
Default : No
Forced : No

Text #7
ID : 10
Format : VobSub
Muxing mode : zlib
Codec ID : S_VOBSUB
Codec ID/Info : Picture based subtitle format used on DVDs
Duration : 1 h 40 min
Bit rate : 19.2 kb/s
Count of elements : 1956
Stream size : 13.8 MiB (0%)
Title : Thai 1080p BIG
Language : Thai
Default : No
Forced : No

Text #8
ID : 11
Format : PGS
Muxing mode : zlib
Codec ID : S_HDMV/PGS
Codec ID/Info : Picture based subtitle format used on BDs/HD-DVDs
Duration : 1 h 40 min
Bit rate : 52.5 kb/s
Count of elements : 3914
Stream size : 37.6 MiB (1%)
Title : Thai PGS BluRay Master
Language : Thai
Default : No
Forced : No

Text #9
ID : 12
Format : PGS
Muxing mode : zlib
Codec ID : S_HDMV/PGS
Codec ID/Info : Picture based subtitle format used on BDs/HD-DVDs
Duration : 1 h 40 min
Bit rate : 52.5 kb/s
Count of elements : 3912
Stream size : 37.6 MiB (1%)
Title : Thai PGS Out
Language : Thai
Default : No
Forced : No

Text #10
ID : 13
Format : PGS
Muxing mode : zlib
Codec ID : S_HDMV/PGS
Codec ID/Info : Picture based subtitle format used on BDs/HD-DVDs
Duration : 1 h 40 min
Bit rate : 60.7 kb/s
Count of elements : 4286
Stream size : 43.5 MiB (1%)
Title : English
Language : English
Default : No
Forced : No

DOWNLOAD


PART01 |||| PART02 |||| PART03 |||| PART04 |||| PART05

PART01 |||| PART02 |||| PART03 |||| PART04 |||| PART05

PART01 |||| PART02 |||| PART03 |||| PART04 |||| PART05

PART01 |||| PART02 |||| PART03 |||| PART04 |||| PART05

PART01 |||| PART02 |||| PART03 |||| PART04 |||| PART05


Leave A Reply

Your email address will not be published.

%d bloggers like this: