[ฝรั่ง] Spider in the Web (2019) สไปเดอร์ อิน เดอะเว็บ [1080p] [พากษ์ไทย 2.0 + เสียงอังกฤษ 5.1] [บรรยายอังกฤษ] [เสียงไทย + ซับอังกฤษ] [PANDAFILE]

0

โหลดหนัง Spider in the Web (2019) สไปเดอร์ อิน เดอะเว็บ 

Spider in the Web (2019) 1h 53min | Thriller | 16 January 2020 (Israel) Summary: A young operative is sent on a mission to follow an older agent, whose behavior has come into question.
Countries: Israel, Belgium, UKLanguages: English, Arabic, Hebrew

เรื่องย่อ Spider in the Web (2019) สไปเดอร์ อิน เดอะเว็บ

เด็กเล็กถูกส่งไปปฏิบัติภารกิจเพื่อติดตามตัวแทนเก่าที่มีปัญหาและอาชีพของเขาก่อนที่นาฬิกาจะหมด แต่เมื่อผู้หญิงลึกลับปรากฏตัวและแนวความเชื่อมั่นที่มีต่อผู้บังคับบัญชาของเขาเริ่มเบลอ Adereth ตระหนักว่านักล่าอาจกลายเป็นผู้ล่าในโลกแห่งกระจกเงาและการหลอกลวง ที่อาจจัดหาอาวุธเคมีให้ซีเรีย การทำให้ความสัมพันธ์ในการทำงานลำบากขึ้นคือความจริงที่ว่า Daniel เป็นบุตรชายของ Adereth อดีตเพื่อนร่วมงานซึ่งเคยจารึกรูปถ่ายให้ Adereth ด้วยความปรารถนาที่จะดูแลลูกชายของเขาเมื่อเขาจากไป ตามปกติแล้วกับสายลับระทึกขวัญเรื่องราวที่ท้าทายความเข้าใจกับสอง – กางเขนและตัวตนที่เป็นความลับที่รวบรวมเรื่องราวเขาวงกตแห่งการวางอุบายที่ผู้ชมที่สนใจเท่านั้นที่จะสามารถปฏิบัติตาม ปัญหาคือความสนใจของพวกเขาอาจจะมีข้อ จำกัด เนื่องจากบทภาพยนตร์ของ Gidon Maron และ Emmanuel Nacchae นั้นสั้นในเรื่องการวางแผนที่คมชัดและการอภิปรายที่ยาวนานเพื่อการพัฒนาตัวละครและการตรวจสอบปรัชญาของสถานะปัจจุบันของโลก เหยียดยาวเพื่อพยักหน้า คุณจะถูกล่อลวงโดยเฉพาะอย่างยิ่งในระหว่างการอธิบายของ Adereth เกี่ยวกับคุณธรรมของซุปถั่วที่ดี

Complete name : Spider.in.the.Web.2019.1080p.WEB-DL.AC3.H264.One2loadup.com.mkv
Format : Matroska
Format version : Version 4
File size : 4.00 GiB
Duration : 1 h 53 min
Overall bit rate : 5 035 kb/s
Movie name : Spider.in.the.Web.2019.1080p.WEB-DL.AC3.H264.One2loadup.com
Encoded date : UTC 2020-04-03 15:26:28
Writing application : mkvmerge v44.0.0 (‘Domino’) 64-bit
Writing library : libebml v1.3.10 + libmatroska v1.5.2

Video
ID : 1
Format : AVC
Format/Info : Advanced Video Codec
Format profile : [email protected]
Format settings : CABAC / 5 Ref Frames
Format settings, CABAC : Yes
Format settings, ReFrames : 5 frames
Codec ID : V_MPEG4/ISO/AVC
Duration : 1 h 53 min
Bit rate : 4 526 kb/s
Width : 1 904 pixels
Height : 794 pixels
Display aspect ratio : 2.40:1
Frame rate mode : Constant
Frame rate : 24.000 FPS
Color space : YUV
Chroma subsampling : 4:2:0
Bit depth : 8 bits
Scan type : Progressive
Bits/(Pixel*Frame) : 0.125
Stream size : 3.59 GiB (90%)
Title : Spider.in.the.Web.2019.1080p.WEB-DL.AC3.H264.One2loadup.com
Language : English
Default : No
Forced : No
Color range : Limited
Color primaries : BT.709
Transfer characteristics : BT.709
Matrix coefficients : BT.709

Audio #1
ID : 2
Format : AAC LC
Format/Info : Advanced Audio Codec Low Complexity
Codec ID : A_AAC-2
Duration : 1 h 53 min
Bit rate : 128 kb/s
Channel(s) : 2 channels
Channel layout : L R
Sampling rate : 44.1 kHz
Frame rate : 43.066 FPS (1024 SPF)
Compression mode : Lossy
Delay relative to video : -26 ms
Stream size : 104 MiB (3%)
Language : Thai
Default : Yes
Forced : No

Audio #2
ID : 3
Format : AC-3
Format/Info : Audio Coding 3
Commercial name : Dolby Digital
Codec ID : A_AC3
Duration : 1 h 53 min
Bit rate mode : Constant
Bit rate : 384 kb/s
Channel(s) : 6 channels
Channel layout : L R C LFE Ls Rs
Sampling rate : 48.0 kHz
Frame rate : 31.250 FPS (1536 SPF)
Bit depth : 16 bits
Compression mode : Lossy
Delay relative to video : -42 ms
Stream size : 312 MiB (8%)
Language : English
Service kind : Complete Main
Default : No
Forced : No

Text
ID : 4
Format : UTF-8
Codec ID : S_TEXT/UTF8
Codec ID/Info : UTF-8 Plain Text
Duration : 1 h 44 min
Bit rate : 53 b/s
Count of elements : 1498
Stream size : 40.8 KiB (0%)
Language : English
Default : Yes
Forced : No

Menu
00:00:00.000 : en:1
00:07:37.000 : en:2
00:14:38.000 : en:3
00:21:51.000 : en:4
00:29:29.000 : en:5
00:36:19.000 : en:6
00:43:31.000 : en:7
00:50:59.000 : en:8
00:58:03.000 : en:9
01:05:13.000 : en:10
01:12:32.000 : en:11
01:19:40.000 : en:12
01:27:01.000 : en:13
01:34:11.000 : en:14
01:41:12.000 : en:15
01:48:36.000 : en:16

DOWNLOAD


PART01 |||| PART02 |||| PART03 |||| PART04 |||| PART05

PART01 |||| PART02 |||| PART03 |||| PART04 |||| PART05

PART01 |||| PART02 |||| PART03 |||| PART04 |||| PART05

PART01 |||| PART02 |||| PART03 |||| PART04 |||| PART05

PART01 |||| PART02 |||| PART03 |||| PART04 |||| PART05


Leave A Reply

Your email address will not be published.

%d bloggers like this: