[ฝรั่ง] Solar Impact (2019) ซอมบี้สุริยะ [1080p] [พากย์ไทย 2.0 + เสียงอังกฤษ 5.1] [บรรยายอังกฤษ] [เสียงไทยมาสเตอร์ + ซับอังกฤษ] [PANDAFILE]

0

โหลดหนัง Solar Impact (2019) ซอมบี้สุริยะ

Solar Impact (2019) 86min | Horror, Sci-Fi | 15 November 2019 (USA) Summary: Solar debris crashes down to Earth, causing widespread destruction and unleashing solar radiation around the world. As genetic mutations rapidly spread, a group of friends must fight to stay alive and escape the chaos.
Languages: English

เรื่องย่อ Solar Impact (2019) ซอมบี้สุริยะ

เศษซากสุริยะตกลงมายังโลกทำให้เกิดการทำลายล้างอย่างกว้างขวางและปล่อยรังสีดวงอาทิตย์ไปทั่วโลก เมื่อการกลายพันธุ์ทางพันธุกรรมแพร่กระจายไปอย่างรวดเร็วกลุ่มเพื่อนจึงต้องต่อสู้เพื่อเอาชีวิตรอดและหลีกหนีจากความวุ่นวาย!!!

Complete name : Solar.Impact.the.Destruction.of.London.2019.1080p.AMZN.WEBRip.EAC3.x264.THM.One2loadup.com.mkv
Format : Matroska
Format version : Version 4
File size : 4.33 GiB
Duration : 1 h 26 min
Overall bit rate : 7 174 kb/s
Movie name : Solar.Impact.the.Destruction.of.London.2019.1080p.AMZN.WEBRip.EAC3.x264.THM.One2loadup.com
Encoded date : UTC 2021-04-05 22:44:54
Writing application : mkvmerge v50.0.0 (‘Awakenings’) 64-bit
Writing library : libebml v1.4.0 + libmatroska v1.6.2

Video
ID : 1
Format : AVC
Format/Info : Advanced Video Codec
Format profile : [email protected]
Format settings : CABAC / 4 Ref Frames
Format settings, CABAC : Yes
Format settings, Reference : 4 frames
Codec ID : V_MPEG4/ISO/AVC
Duration : 1 h 26 min
Bit rate mode : Constant
Bit rate : 6 808 kb/s
Nominal bit rate : 10 000 kb/s
Width : 1 920 pixels
Height : 1 080 pixels
Display aspect ratio : 16:9
Frame rate mode : Constant
Frame rate : 23.976 (24000/1001) FPS
Color space : YUV
Chroma subsampling : 4:2:0
Bit depth : 8 bits
Scan type : Progressive
Bits/(Pixel*Frame) : 0.137
Stream size : 4.11 GiB (95%)
Title : Solar.Impact.the.Destruction.of.London.2019.1080p.AMZN.WEBRip.EAC3.x264.THM.One2loadup.com
Default : Yes
Forced : No
Color range : Limited
Color primaries : BT.709
Transfer characteristics : BT.709
Matrix coefficients : BT.709

Audio #1
ID : 2
Format : E-AC-3
Format/Info : Enhanced AC-3
Commercial name : Dolby Digital Plus
Codec ID : A_EAC3
Duration : 1 h 26 min
Bit rate mode : Constant
Bit rate : 224 kb/s
Channel(s) : 2 channels
Channel layout : L R
Sampling rate : 48.0 kHz
Frame rate : 31.250 FPS (1536 SPF)
Compression mode : Lossy
Stream size : 139 MiB (3%)
Language : English
Service kind : Complete Main
Default : Yes
Forced : No

Audio #2
ID : 4
Format : AAC LC
Format/Info : Advanced Audio Codec Low Complexity
Codec ID : A_AAC-2
Duration : 1 h 26 min
Bit rate : 140 kb/s
Channel(s) : 2 channels
Channel layout : L R
Sampling rate : 48.0 kHz
Frame rate : 46.875 FPS (1024 SPF)
Compression mode : Lossy
Stream size : 86.4 MiB (2%)
Language : Thai
Default : No
Forced : No

Text
ID : 3
Format : UTF-8
Codec ID : S_TEXT/UTF8
Codec ID/Info : UTF-8 Plain Text
Duration : 1 h 21 min
Bit rate : 33 b/s
Count of elements : 896
Stream size : 20.0 KiB (0%)
Title : English (SDH)
Language : English
Default : No
Forced : No

DOWNLOAD


PART01 |||| PART02 |||| PART03 |||| PART04 |||| PART05

PART01 |||| PART02 |||| PART03 |||| PART04 |||| PART05

PART01 |||| PART02 |||| PART03 |||| PART04 |||| PART05

PART01 |||| PART02 |||| PART03 |||| PART04 |||| PART05

PART01 |||| PART02 |||| PART03 |||| PART04 |||| PART05


Leave A Reply

Your email address will not be published.

%d bloggers like this: