[ฝรั่ง] Smile (2022) ยิ้มสยอง [1080p] [พากย์ไทย 2.0 + เสียงอังกฤษ 5.1] [บรรยายไทย + อังกฤษ] [เสียงไทยมาสเตอร์ + ซับไทย] [USERLOAD]

0

โหลดหนัง SMILE (2022) ยิ้มสยอง

Smile | September 30, 2022 (United States) Summary: After witnessing a bizarre, traumatic incident involving a patient, Dr. Rose Cotter starts experiencing frightening occurrences that she can't explain. Rose must confront her troubling past ... Read all
Countries: United StatesLanguages: English

เรื่องย่อ SMILE (2022) ยิ้มสยอง

หลังจากพบเห็นเหตุการณ์พิลึกพิลั่น และเจ็บปวดที่เกี่ยวข้องกับคนไข้ ดร.โรส คอตเตอร์ (โซซี เบคอน) ก็เริ่มพบกับเหตุการณ์สะเทือนขวัญ ที่เธอไม่อาจอธิบายได้ เมื่อความน่าสะพรึงกลัวเริ่มเข้ามาครอบงำชีวิตของเธอ โรสจะต้องเผชิญหน้ากับอดีตอันเจ็บปวดของเธอเพื่อเอาชีวิตรอดและหลบหนีจากความเป็นจริงใหม่ที่น่าสยดสยอง

Complete name : Smile.2022.1080p.AMZN.WEB-DL.EAC3.x264.THM.One2loadup.com.mkv
Format : Matroska
Format version : Version 4
File size : 7.47 GiB
Duration : 1 h 55 min
Overall bit rate : 9 255 kb/s
Movie name : Smile.2022.1080p.AMZN.WEB-DL.EAC3.x264.THM.One2loadup.com
Encoded date : UTC 2022-11-18 11:59:33
Writing application : mkvmerge v68.0.0.1 (‘The Curtain’) 64-bit
Writing library : libebml v1.4.2 + libmatroska v1.6.4
Cover : Yes
Attachments : cover

Video
ID : 1
Format : AVC
Format/Info : Advanced Video Codec
Format profile : [email protected]
Format settings : CABAC / 4 Ref Frames
Format settings, CABAC : Yes
Format settings, Reference : 4 frames
Codec ID : V_MPEG4/ISO/AVC
Duration : 1 h 55 min
Bit rate mode : Constant
Bit rate : 8 241 kb/s
Nominal bit rate : 10 000 kb/s
Width : 1 920 pixels
Height : 1 080 pixels
Display aspect ratio : 16:9
Frame rate mode : Constant
Frame rate : 23.976 (24000/1001) FPS
Color space : YUV
Chroma subsampling : 4:2:0
Bit depth : 8 bits
Scan type : Progressive
Bits/(Pixel*Frame) : 0.166
Stream size : 6.65 GiB (89%)
Title : Smile.2022.1080p.AMZN.WEB-DL.EAC3.x264.THM.One2loadup.com
Language : English
Default : Yes
Forced : No
Color range : Limited
Color primaries : BT.709
Transfer characteristics : BT.709
Matrix coefficients : BT.709

Audio #1
ID : 2
Format : E-AC-3 JOC
Format/Info : Enhanced AC-3 with Joint Object Coding
Commercial name : Dolby Digital Plus with Dolby Atmos
Codec ID : A_EAC3
Duration : 1 h 55 min
Bit rate mode : Constant
Bit rate : 768 kb/s
Channel(s) : 6 channels
Channel layout : L R C LFE Ls Rs
Sampling rate : 48.0 kHz
Frame rate : 31.250 FPS (1536 SPF)
Compression mode : Lossy
Delay relative to video : 6 ms
Stream size : 635 MiB (8%)
Title : En.EAC3.768 kb/s.6 channels:Dolby Digital Plus with Dolby Atmos
Language : English
Service kind : Complete Main
Default : Yes
Forced : No
Complexity index : 16
Number of dynamic objects : 15
Bed channel count : 1 channel
Bed channel configuration : LFE

Audio #2
ID : 3
Format : AC-3
Format/Info : Audio Coding 3
Commercial name : Dolby Digital
Codec ID : A_AC3
Duration : 1 h 55 min
Bit rate mode : Constant
Bit rate : 192 kb/s
Channel(s) : 2 channels
Channel layout : L R
Sampling rate : 48.0 kHz
Frame rate : 31.250 FPS (1536 SPF)
Compression mode : Lossy
Stream size : 159 MiB (2%)
Title : Th.2.0.AC3.192k
Language : Thai
Service kind : Complete Main
Default : Yes
Forced : No

Text #1
ID : 4
Format : PGS
Muxing mode : zlib
Codec ID : S_HDMV/PGS
Codec ID/Info : Picture based subtitle format used on BDs/HD-DVDs
Duration : 1 h 48 min
Bit rate : 35.5 kb/s
Count of elements : 2282
Stream size : 27.7 MiB (0%)
Title : Th.3.100.92.White
Language : Thai
Default : No
Forced : No

Text #2
ID : 5
Format : PGS
Muxing mode : zlib
Codec ID : S_HDMV/PGS
Codec ID/Info : Picture based subtitle format used on BDs/HD-DVDs
Duration : 1 h 48 min
Bit rate : 31.0 kb/s
Count of elements : 2292
Stream size : 24.0 MiB (0%)
Title : EN.110.3.83.Yellow
Language : English
Default : No
Forced : No

Text #3
ID : 6
Format : PGS
Muxing mode : zlib
Codec ID : S_HDMV/PGS
Codec ID/Info : Picture based subtitle format used on BDs/HD-DVDs
Duration : 1 h 50 min
Bit rate : 34.7 kb/s
Count of elements : 2716
Stream size : 27.3 MiB (0%)
Title : EN.SDH.110.3.83.Green
Language : English
Default : No
Forced : No

Menu
00:00:00.000 : en:Chapter 01
00:06:09.160 : en:Chapter 02
00:13:36.274 : en:Chapter 03
00:22:04.574 : en:Chapter 04
00:30:02.135 : en:Chapter 05
00:36:58.426 : en:Chapter 06
00:43:21.226 : en:Chapter 07
00:50:58.975 : en:Chapter 08
00:58:01.481 : en:Chapter 09
01:04:26.783 : en:Chapter 10
01:12:14.334 : en:Chapter 11
01:20:54.854 : en:Chapter 12
01:29:29.077 : en:Chapter 13
01:37:15.710 : en:Chapter 14
01:44:05.411 : en:Chapter 15
01:50:22.038 : en:Chapter 16

DOWNLOAD


PART01 |||| PART02 |||| PART03 |||| PART04 |||| PART05 |||| PART06 |||| PART07 |||| PART08

PART01 |||| PART02 |||| PART03 |||| PART04 |||| PART05 |||| PART06 |||| PART07 |||| PART08

PART01 |||| PART02 |||| PART03 |||| PART04 |||| PART05 |||| PART06 |||| PART07 |||| PART08

PART01 |||| PART02 |||| PART03 |||| PART04 |||| PART05 |||| PART06 |||| PART07 |||| PART08

PART01 |||| PART02 |||| PART03 |||| PART04 |||| PART05 |||| PART06 |||| PART07 |||| PART08


Leave A Reply

อีเมล์ของคุณจะไม่แสดงให้เห็น Your email address will not be published.

%d bloggers like this: