[ฝรั่ง] Skylines (2020) สกายไลน์ 3 สงครามถล่มจักรวาล [1080p] [พากย์ไทยโรง 2.0 + เสียงอังกฤษ 5.1] [บรรยายอังกฤษ] [เสียงไทยโรง + ซับอังกฤษ] [PANDAFILE]

8

โหลดหนัง Skylines (2020) สกายไลน์ 3 สงครามถล่มจักรวาล

Skylines | December 18, 2020 (Brazil) Summary: When a virus threatens to turn the now earth-dwelling friendly alien hybrids against humans, Captain Rose Corley must lead a team of elite mercenaries on a mission to the alien world in orde... Read all
Countries: United Kingdom, United StatesLanguages: English

เรื่องย่อ Skylines (2020) สกายไลน์ 3 สงครามถล่มจักรวาล

เนื่องจากไวรัสกำลังคุกคามและฆ่าล้างบางคนทั้งโลกลูกครึ่งผู้มีพลังเหนือมนุษย์อย่าง Rose Corley จึงต้องนำทีมเหล่าทหารชั้นยอดเข้าทำภารกิจกำจัดเหล่าเอเลี่ยนที่รุกรานโลกเพื่อปกป้องเหล่ามนุษยชาติที่ยังหลงเหลืออยู่

Complete name : Skylines.2020.1080p.AMZN.WEBRip.EAC3.x264.THR.One2loadup.com.mkv
Format : Matroska
Format version : Version 4
File size : 5.89 GiB
Duration : 1 h 53 min
Overall bit rate : 7 446 kb/s
Movie name : Skylines.2020.1080p.AMZN.WEBRip.EAC3.x264.THR.One2loadup.com
Encoded date : UTC 2021-04-04 22:25:50
Writing application : mkvmerge v50.0.0 (‘Awakenings’) 64-bit
Writing library : libebml v1.4.0 + libmatroska v1.6.2

Video
ID : 1
Format : AVC
Format/Info : Advanced Video Codec
Format profile : [email protected]
Format settings : CABAC / 4 Ref Frames
Format settings, CABAC : Yes
Format settings, Reference : 4 frames
Codec ID : V_MPEG4/ISO/AVC
Duration : 1 h 53 min
Bit rate mode : Constant
Bit rate : 6 664 kb/s
Nominal bit rate : 10 000 kb/s
Width : 1 920 pixels
Height : 800 pixels
Display aspect ratio : 2.40:1
Frame rate mode : Constant
Frame rate : 23.976 (24000/1001) FPS
Color space : YUV
Chroma subsampling : 4:2:0
Bit depth : 8 bits
Scan type : Progressive
Bits/(Pixel*Frame) : 0.181
Stream size : 5.27 GiB (89%)
Title : Skylines.2020.1080p.AMZN.WEBRip.EAC3.x264.THR.One2loadup.com
Default : Yes
Forced : No
Color range : Limited
Color primaries : BT.709
Transfer characteristics : BT.709
Matrix coefficients : BT.709

Audio #1
ID : 2
Format : E-AC-3
Format/Info : Enhanced AC-3
Commercial name : Dolby Digital Plus
Codec ID : A_EAC3
Duration : 1 h 53 min
Bit rate mode : Constant
Bit rate : 640 kb/s
Channel(s) : 6 channels
Channel layout : L R C LFE Ls Rs
Sampling rate : 48.0 kHz
Frame rate : 31.250 FPS (1536 SPF)
Compression mode : Lossy
Stream size : 519 MiB (9%)
Language : English
Service kind : Complete Main
Default : Yes
Forced : No

Audio #2
ID : 4
Format : AAC LC
Format/Info : Advanced Audio Codec Low Complexity
Codec ID : A_AAC-2
Duration : 1 h 53 min
Bit rate : 140 kb/s
Channel(s) : 2 channels
Channel layout : L R
Sampling rate : 48.0 kHz
Frame rate : 46.875 FPS (1024 SPF)
Compression mode : Lossy
Stream size : 113 MiB (2%)
Title : THR
Default : No
Forced : No

Text
ID : 3
Format : UTF-8
Codec ID : S_TEXT/UTF8
Codec ID/Info : UTF-8 Plain Text
Duration : 1 h 44 min
Bit rate : 46 b/s
Count of elements : 1271
Stream size : 35.4 KiB (0%)
Title : SDH
Language : English
Default : No
Forced : No

DOWNLOAD


PART01 |||| PART02 |||| PART03 |||| PART04 |||| PART05 |||| PART06 |||| PART07

PART01 |||| PART02 |||| PART03 |||| PART04 |||| PART05 |||| PART06 |||| PART07

PART01 |||| PART02 |||| PART03 |||| PART04 |||| PART05 |||| PART06 |||| PART07

PART01 |||| PART02 |||| PART03 |||| PART04 |||| PART05 |||| PART06 |||| PART07

PART01 |||| PART02 |||| PART03 |||| PART04 |||| PART05 |||| PART06 |||| PART07


8 Comments
  1. pukpui says

    file 5 ซ้ำกับ file 4 ค่ะ

    1. Admin
      Admin says

      ซ้ำลิ้งไหนฮ๊ะ เราจะได้เช็คได้ถูก

      1. puipuk says

        มี file 4 ซ้ำสองไฟล์ค่ะ

        ขอบคุณค่ะ

      2. puipuk says

        ลองเช็คทุกลิ้งค์แล้ว part 4 กับ part 5 ซ้ำกันทุกอันเลยค่ะ

      3. puipuk says

        part5 ของ uploadbuzz มาแล้วค๊า

        ขอบคุณมากค่ะ

        1. Admin
          Admin says

          น่าจะช่วงแรกเราใส่ลิ้งพลาดไปหน่อย ตอนนี้น่าจะถูกหมดแล้วนะฮ๊ะ ^^

  2. Vagoals
    Vagoals says

    มีวิธีดาวโหลดเป็นภาษาไทยไหมครับ บางทีโหลดมาเป็นภาษาอังกฤษ
    น่าจะดูไม่เป็น ขออนุญาติสอบถามหน่อยครับ

    1. Admin
      Admin says

      แนะนำให้ใช้โปรแกรม VLC ในการเปิดดูฮ๊ะ จะมีตัวเลือกในการเปลี่ย่นภาษา ฮ๊ะ

Leave A Reply

อีเมล์ของคุณจะไม่แสดงให้เห็น Your email address will not be published.

%d bloggers like this: