[ฝรั่ง] Sherlock: The Abominable Bride (2016) สุภาพบุรุษยอดนักสืบ ตอน คดีวิญญาณเจ้าสาว [1080p] [พากย์ไทย 2.0 + อังกฤษ 5.1] [บรรยายไทย + อังกฤษ] [เสียงไทย + ซับไทย] [ONE2UP]

2

โหลดหนัง Sherlock: The Abominable Bride (2016) สุภาพบุรุษยอดนักสืบ ตอน คดีวิญญาณเจ้าสาว

Sherlock: The Abominable Bride  1h 29min | Crime, Drama, Mystery | 1 January 2016 Summary: Sherlock Holmes and Dr. Watson find themselves in 1890s London in this Christmas special.
Countries: UKLanguages: English, French

เรื่องย่อ Sherlock: The Abominable Bride (2016) สุภาพบุรุษยอดนักสืบ ตอน คดีวิญญาณเจ้าสาว

นักสืบเชอร์ล็อค โฮล์มส์ พบปะกับ ดร.จอห์น วัตสัน เราเคยมาที่แห่งนี้ แต่ เอ๊ะ ! ถ้าหากตอนนี้ไม่ใช่ช่วงเวลาในปัจจุบัน แต่เป็นช่วงยุคปลายวิคตอเรียน ? แล้วถ้าหากนักสืบชื่อดังของโลกกับเพื่อนซี้ของเขามาอ ยู่ที่นี่ ย่านเบเกอร์ สตรีท สถานีรถไฟหัวจักรไอน้ำ… ยินดีต้อนรับสู่ ‘Sherlock’ ในปี 1895 … บางสิ่งบางอย่างยังคงเหมือนเดิม มิตรภาพ การผจญภัย และการฆาตกรรม !!!

เหตุใด โทมัส ริโคเล็ตติ (Thomas Ricoletti) จึงค่อนข้างประหลาดใจที่เห็นภรรยาของตนสวมชุดเจ้าสาว นั่นก็เพราะว่า เมื่อไม่กี่ชั่วโมงก่อนหน้านี้ เธอได้ปลิดชีพตนเอง … ตอนนี้ ผีคุณนายริโคเล็ตติ กำลังแค้นอาฆาต และดูเหมือนว่าคราวนี้ นักสืบเชอร์ล็อค โฮล์มส์ กับ ดร.จอห์น วัตสัน และมิตรสหาย จะต้องต่อกรกับศัตรูที่มาจากหลุมศพ พร้อมเผชิญความจริงอันสุดสะพรึงของ… เจ้าสาวน่าชัง !

Complete name : Shelock.The.Abominable.Bride.2016.720p.x264.One2loadup.com.mkv
Format : Matroska
Format version : Version 2
File size : 4.82 GiB
Duration : 1 h 29 min
Overall bit rate mode : Variable
Overall bit rate : 7 733 kb/s
Encoded date : UTC 2018-06-23 04:14:24
Writing application : MakeMKV v1.9.1 win(x86-release)
Writing library : libmakemkv v1.9.1 (1.3.0/1.4.1) win(x86-release)

Video
ID : 1
Format : MPEG Video
Format version : Version 2
Format profile : [email protected]
Format settings : BVOP
Format settings, BVOP : Yes
Format settings, Matrix : Default
Format settings, GOP : M=3, N=12
Format settings, picture st : Frame
Codec ID : V_MPEG2
Codec ID/Info : MPEG 1 or 2 Video
Duration : 1 h 29 min
Bit rate mode : Variable
Bit rate : 5 737 kb/s
Maximum bit rate : 7 500 kb/s
Width : 720 pixels
Height : 576 pixels
Display aspect ratio : 16:9
Frame rate mode : Constant
Frame rate : 25.000 FPS
Standard : PAL
Color space : YUV
Chroma subsampling : 4:2:0
Bit depth : 8 bits
Scan type : Interlaced
Scan order : Top Field First
Compression mode : Lossy
Bits/(Pixel*Frame) : 0.553
Time code of first frame : 00:00:00:00
Time code source : Group of pictures header
GOP, Open/Closed : Closed
Stream size : 3.58 GiB (74%)
Language : English
Default : No
Forced : No
Color primaries : BT.601 PAL
Transfer characteristics : BT.470 System B, BT.470 System G
Matrix coefficients : BT.470 System B, BT.470 System G

Audio #1
ID : 2
Format : AC-3
Format/Info : Audio Coding 3
Codec ID : A_AC3
Duration : 1 h 29 min
Bit rate mode : Constant
Bit rate : 384 kb/s
Channel(s) : 6 channels
Channel positions : Front: L C R, Side: L R, LFE
Sampling rate : 48.0 kHz
Frame rate : 31.250 FPS (1536 SPF)
Bit depth : 16 bits
Compression mode : Lossy
Stream size : 245 MiB (5%)
Title : Surround 5.1
Language : Italian
Service kind : Complete Main
Default : Yes
Forced : No

Audio #2
ID : 3
Format : DTS
Format/Info : Digital Theater Systems
Codec ID : A_DTS
Duration : 1 h 29 min
Bit rate mode : Constant
Bit rate : 755 kb/s
Channel(s) : 6 channels
Channel positions : Front: L C R, Side: L R, LFE
Sampling rate : 48.0 kHz
Frame rate : 93.750 FPS (512 SPF)
Bit depth : 24 bits
Compression mode : Lossy
Stream size : 482 MiB (10%)
Title : Surround 5.1
Language : Italian
Default : No
Forced : No

Audio #3
ID : 4
Format : AC-3
Format/Info : Audio Coding 3
Codec ID : A_AC3
Duration : 1 h 29 min
Bit rate mode : Constant
Bit rate : 448 kb/s
Channel(s) : 6 channels
Channel positions : Front: L C R, Side: L R, LFE
Sampling rate : 48.0 kHz
Frame rate : 31.250 FPS (1536 SPF)
Bit depth : 16 bits
Compression mode : Lossy
Stream size : 286 MiB (6%)
Title : Surround 5.1
Language : English
Service kind : Complete Main
Default : No
Forced : No

Audio #4
ID : 5
Format : AC-3
Format/Info : Audio Coding 3
Codec ID : A_AC3
Duration : 1 h 29 min
Bit rate mode : Constant
Bit rate : 256 kb/s
Channel(s) : 2 channels
Channel positions : Front: L R
Sampling rate : 48.0 kHz
Frame rate : 31.250 FPS (1536 SPF)
Bit depth : 16 bits
Compression mode : Lossy
Stream size : 164 MiB (3%)
Title : Stereo
Language : Thai
Service kind : Complete Main
Default : No
Forced : No

Text #1
ID : 6
Format : VobSub
Codec ID : S_VOBSUB
Codec ID/Info : Picture based subtitle format used on DVDs
Language : Italian
Default : Yes
Forced : No

Text #2
ID : 7
Format : VobSub
Codec ID : S_VOBSUB
Codec ID/Info : Picture based subtitle format used on DVDs
Language : Italian
Default : No
Forced : No

Text #3
ID : 8
Format : VobSub
Codec ID : S_VOBSUB
Codec ID/Info : Picture based subtitle format used on DVDs
Language : English
Default : No
Forced : No

Text #4
ID : 9
Format : VobSub
Codec ID : S_VOBSUB
Codec ID/Info : Picture based subtitle format used on DVDs
Language : Thai
Default : No
Forced : No

Menu
00:00:00.000 : en:Chapter 01
00:05:44.920 : en:Chapter 02
00:16:15.520 : en:Chapter 03
00:25:50.160 : en:Chapter 04
00:37:48.200 : en:Chapter 05
00:48:08.640 : en:Chapter 06
00:59:58.440 : en:Chapter 07
01:11:04.080 : en:Chapter 08

DOWNLOAD


PART01 |||| PART02 |||| PART03 |||| PART04 |||| PART05

PART01 |||| PART02 |||| PART03 |||| PART04 |||| PART05

PART01 |||| PART02 |||| PART03 |||| PART04 |||| PART05

PART01 |||| PART02 |||| PART03 |||| PART04 |||| PART05


2 Comments
  1. Yuttachai Kosonmontri
    Yuttachai Kosonmontri says

    ช่วยอัพลง upfile.info ได้มั๊ยครับ

    1. Admin
      Admin says

      แก้ไขเรียบร้อยฮ๊ะ

Leave A Reply

Your email address will not be published.

%d bloggers like this: