[ฝรั่ง] Nobody Sleeps in the Woods Tonight (2020) คืนผวาป่าไร้เงา [1080p] [NETFLIX] [พากย์โปแลนด์ 5.1 + เสียงอังกฤษ 5.1] [Soundtrack บรรยายไทย] [เสียงโปแลนด์ + ซับไทย] [PANDAFILE]

0

โหลดหนัง Nobody Sleeps in the Woods Tonight (2020) คืนผวาป่าไร้เงา

Nobody Sleeps in the Woods Tonight (2020) 1h 42min | Horror, Thriller | 28 October 2020 (Argentina) Summary: A slasher film where a group of teenagers arrive at a survival camp where they clash with two deformed cannibals.
Countries: PolandLanguages: Polish

เรื่องย่อ Nobody Sleeps in the Woods Tonight (2020) คืนผวาป่าไร้เงา

กลุ่มวัยรุ่นติดเทคโนโลยีไปเข้าค่ายบำบัดกลางป่า แต่พลังชั่วร้าย ณ ที่แห่งนั้นหวังพาพวกเขาออฟไลน์ตลอดกาล

Complete name : Nobody.Sleeps.in.the.Woods.Tonight.2020.1080p.NF.WEB-DL.EAC3.x264.Subthai.One2loadup.com.mkv
Format : Matroska
Format version : Version 4
File size : 4.50 GiB
Duration : 1 h 43 min
Overall bit rate : 6 228 kb/s
Movie name : Nobody.Sleeps.in.the.Woods.Tonight.2020.1080p.NF.WEB-DL.EAC3.x264.Subthai.One2loadup.com
Encoded date : UTC 2020-10-28 13:34:22
Writing application : mkvmerge v51.0.0 (‘I Wish’) 64-bit
Writing library : libebml v1.4.0 + libmatroska v1.6.2

Video
ID : 1
Format : AVC
Format/Info : Advanced Video Codec
Format profile : [email protected]
Format settings : CABAC / 3 Ref Frames
Format settings, CABAC : Yes
Format settings, ReFrames : 3 frames
Codec ID : V_MPEG4/ISO/AVC
Duration : 1 h 43 min
Bit rate : 4 926 kb/s
Width : 1 920 pixels
Height : 800 pixels
Display aspect ratio : 2.40:1
Frame rate mode : Constant
Frame rate : 24.000 FPS
Color space : YUV
Chroma subsampling : 4:2:0
Bit depth : 8 bits
Scan type : Progressive
Bits/(Pixel*Frame) : 0.134
Stream size : 3.56 GiB (79%)
Title : Nobody.Sleeps.in.the.Woods.Tonight.2020.1080p.NF.WEB-DL.EAC3.x264.Subthai.One2loadup.com
Language : Polish
Default : Yes
Forced : No

Audio #1
ID : 2
Format : E-AC-3
Format/Info : Enhanced AC-3
Commercial name : Dolby Digital Plus
Codec ID : A_EAC3
Duration : 1 h 43 min
Bit rate mode : Constant
Bit rate : 640 kb/s
Channel(s) : 6 channels
Channel layout : L R C LFE Ls Rs
Sampling rate : 48.0 kHz
Frame rate : 31.250 FPS (1536 SPF)
Compression mode : Lossy
Stream size : 473 MiB (10%)
Title : AC-3 Polish
Language : Polish
Service kind : Complete Main
Default : Yes
Forced : No

Audio #2
ID : 3
Format : E-AC-3
Format/Info : Enhanced AC-3
Commercial name : Dolby Digital Plus
Codec ID : A_EAC3
Duration : 1 h 43 min
Bit rate mode : Constant
Bit rate : 640 kb/s
Channel(s) : 6 channels
Channel layout : L R C LFE Ls Rs
Sampling rate : 48.0 kHz
Frame rate : 31.250 FPS (1536 SPF)
Compression mode : Lossy
Stream size : 473 MiB (10%)
Title : AC-3 English
Language : English
Service kind : Complete Main
Default : No
Forced : No

Text #1
ID : 4
Format : VobSub
Muxing mode : zlib
Codec ID : S_VOBSUB
Codec ID/Info : Picture based subtitle format used on DVDs
Duration : 1 h 41 min
Bit rate : 4 667 b/s
Count of elements : 638
Stream size : 3.39 MiB (0%)
Title : Sub Thai 1080p
Language : Thai
Default : No
Forced : No

Text #2
ID : 5
Format : UTF-8
Codec ID : S_TEXT/UTF8
Codec ID/Info : UTF-8 Plain Text
Duration : 1 h 41 min
Bit rate : 52 b/s
Count of elements : 638
Stream size : 39.4 KiB (0%)
Title : Sub Thai SRT
Language : Thai
Default : No
Forced : No

Text #3
ID : 6
Format : PGS
Muxing mode : zlib
Codec ID : S_HDMV/PGS
Codec ID/Info : Picture based subtitle format used on BDs/HD-DVDs
Duration : 1 h 41 min
Bit rate : 15.4 kb/s
Count of elements : 1276
Stream size : 11.2 MiB (0%)
Title : Sub Thai PGS
Language : Thai
Default : Yes
Forced : No

Text #4
ID : 7
Format : VobSub
Muxing mode : zlib
Codec ID : S_VOBSUB
Codec ID/Info : Picture based subtitle format used on DVDs
Duration : 1 h 37 min
Bit rate : 4 622 b/s
Count of elements : 634
Stream size : 3.23 MiB (0%)
Title : Sub English 1080p
Language : English
Default : No
Forced : No

Text #5
ID : 8
Format : UTF-8
Codec ID : S_TEXT/UTF8
Codec ID/Info : UTF-8 Plain Text
Duration : 1 h 37 min
Bit rate : 23 b/s
Count of elements : 634
Stream size : 16.5 KiB (0%)
Title : Sub English SRT
Language : English
Default : No
Forced : No

Text #6
ID : 9
Format : PGS
Muxing mode : zlib
Codec ID : S_HDMV/PGS
Codec ID/Info : Picture based subtitle format used on BDs/HD-DVDs
Duration : 1 h 37 min
Bit rate : 15.4 kb/s
Count of elements : 1268
Stream size : 10.7 MiB (0%)
Title : Sub English PGS
Language : English
Default : No
Forced : No

DOWNLOAD


PART01 |||| PART02 |||| PART03 |||| PART04 |||| PART05

PART01 |||| PART02 |||| PART03 |||| PART04 |||| PART05

PART01 |||| PART02 |||| PART03 |||| PART04 |||| PART05

PART01 |||| PART02 |||| PART03 |||| PART04 |||| PART05

PART01 |||| PART02 |||| PART03 |||| PART04 |||| PART05



แจ้งหนังเสีย หรือโหลดไม่ได้ ทั้งลิ้งฟรีและ vip สามารถกดที่รูปด้านบนนี้ได้เลย

: Disable Comments
%d bloggers like this: