[ฝรั่ง] Nekrotronic (2018) ทีมพิฆาตปีศาจไซเบอร์ [1080p] [พากย์ไทย 2.0] [ไม่มีบรรยาย] [เสียงไทยมาสเตอร์] [PANDAFILE]

0

โหลดหนัง Nekrotronic (2018) ทีมพิฆาตปีศาจไซเบอร์

Nekrotronic (2018) 99min | Action, Comedy, Horror, Sci-Fi | August 9, 2019 (United States) Summary: A man who discovers that he is part of a secret sect of magical beings who hunt down and destroy demons in the internet.
Countries: Australia, CanadaLanguages: English

เรื่องย่อ Nekrotronic (2018) ทีมพิฆาตปีศาจไซเบอร์

พบหนังไซไฟ-สยองขวัญ พล็อตแปลกสุดล้ำ เรื่องราวของ โฮวาร์ด (เบน โอทูล) ชายหนุ่มธรรมดา ๆ ที่วันหนึ่งได้ค้นพบว่าเขาคือสายเลือดคนสุดท้ายของตระกูลนักล่าปีศาจเลื่องชื่อ และบัดนี้เหล่าปีศาจได้หาวิธีเข้ามาสิงสู่ในโลกอินเต อร์เน็ทและจ้องจะทำร้ายผู้คนผ่านสมาร์ทโฟน! โฮวาร์ดต้องเรียนรู้การเป็นนักล่าปีศาจ และออกปฏิบัติภารกิจเพื่อช่วยโลกนี้เอาไว้

Complete name : Nekrotronic.2018.1080p.WEB-DL.AC3.x264.THM.One2loadup.com.mkv
Format : Matroska
Format version : Version 4
File size : 3.51 GiB
Duration : 1 h 32 min
Overall bit rate : 5 413 kb/s
Movie name : Nekrotronic.2018.1080p.WEB-DL.AC3.x264.THM.One2loadup.com
Encoded date : UTC 2021-05-04 04:07:46
Writing application : mkvmerge v56.1.0 (‘My Friend’) 64-bit
Writing library : libebml v1.4.2 + libmatroska v1.6.4
Cover : Yes
Attachments : cover

Video
ID : 1
Format : AVC
Format/Info : Advanced Video Codec
Format profile : [email protected]
Format settings : CABAC / 2 Ref Frames
Format settings, CABAC : Yes
Format settings, Reference : 2 frames
Codec ID : V_MPEG4/ISO/AVC
Duration : 1 h 32 min
Bit rate : 5 217 kb/s
Width : 1 920 pixels
Height : 1 080 pixels
Display aspect ratio : 16:9
Frame rate mode : Constant
Frame rate : 29.970 (30000/1001) FPS
Color space : YUV
Chroma subsampling : 4:2:0
Bit depth : 8 bits
Scan type : Progressive
Bits/(Pixel*Frame) : 0.084
Stream size : 3.38 GiB (96%)
Title : Nekrotronic.2018.1080p.WEB-DL.AC3.x264.THM.One2loadup.com
Language : Thai
Default : Yes
Forced : No

Audio
ID : 2
Format : AC-3
Format/Info : Audio Coding 3
Commercial name : Dolby Digital
Codec ID : A_AC3
Duration : 1 h 32 min
Bit rate mode : Constant
Bit rate : 192 kb/s
Channel(s) : 2 channels
Channel layout : L R
Sampling rate : 44.1 kHz
Frame rate : 28.711 FPS (1536 SPF)
Compression mode : Lossy
Stream size : 127 MiB (4%)
Title : Thai Master 2.0
Language : Thai
Service kind : Complete Main
Default : Yes
Forced : No

DOWNLOAD


PART01 |||| PART02 |||| PART03 |||| PART04

PART01 |||| PART02 |||| PART03 |||| PART04

PART01 |||| PART02 |||| PART03 |||| PART04

PART01 |||| PART02 |||| PART03 |||| PART04

PART01 |||| PART02 |||| PART03 |||| PART04


Leave A Reply

อีเมล์ของคุณจะไม่แสดงให้เห็น Your email address will not be published.

%d bloggers like this: