[ฝรั่ง] Lady Bird (2017) เลดี้ เบิร์ด [1080p] [พากย์อังกฤษ DTS] [Soundtrack บรรยายไทย] [เสียงอังกฤษ + ซับไทย] [PANDAFILE]

3

โหลดหนัง Lady Bird (2017) เลดี้ เบิร์ด

Lady Bird | December 1, 2017 (United States) Summary: In 2002, an artistically inclined seventeen-year-old girl comes of age in Sacramento, California.
Countries: United StatesLanguages: English, Spanish

เรื่องย่อ Lady Bird (2017) เลดี้ เบิร์ด

ใน Lady Bird เกรต้า เกอวิค แจ้งเกิดอีกครั้งกับการกำกับภาพยนตร์เรื่องเยี่ยม ที่เต็มเปี่ยมไปด้วยอารมณ์ขันและความสัมพันธ์ที่แสนจะปั่นป่วนระหว่างแม่และลูกสาวที่อยู่ในช่วงวัยรุ่น คริสทีน เลดี้เบิร์ด แม็คเพียร์สัน (เซียร์ชา โรแนน) ต่อต้านแม่ของเธออย่างหนัก ในขณะเดียวกันก็ทั้งรักและเป็นห่วงคุณแม่ที่สุดแสนจะเข้มแข็ง (ลอรี เม็ตคาล์ฟ) พยาบาลวัยกลางคนผู้ต้องรับภาระดูแลครอบครัวอย่างยากลำบากหลังจากพ่อของเลดี้เบิร์ด (เทรซี เล็ตส์) ตกงาน เหตุการณ์ทั้งหมดนี้เกิดขึ้นในเมืองซาคราเม็นโตรัฐแคลิฟอร์เนียในปี 2002 ซึ่งเป็นช่วงเวลาสุดพลิกผันของเศรษฐกิจอเมริกันจะสะท้อนให้เห็นถึงความสัมพันธ์ที่หล่อหลอมกลายมาเป็นตัวเรา ความเชื่อที่บ่งบอกถึงตัวเรา และสถานที่สุดแสนสวยงามแต่ช่างไม่เข้ากับเราเลยอย่างบ้าน!!!

Complete name : Lady.Bird.2017.1080p.BrRip.DTS.x264.Subthai.One2loadup.com.mkv
Format : Matroska
Format version : Version 4
File size : 3.89 GiB
Duration : 1 h 34 min
Overall bit rate : 5 882 kb/s
Movie name : Lady.Bird.2017.1080p.BrRip.DTS.x264.Subthai.One2loadup.com
Encoded date : UTC 2010-02-22 21:41:31
Writing application : mkvmerge v5.9.0 (‘On The Loose’) built on Dec 9 2012 15:37:01
Writing library : libebml v1.3.0 + libmatroska v1.4.0

Video
ID : 1
Format : AVC
Format/Info : Advanced Video Codec
Format profile : [email protected]
Format settings : CABAC / 4 Ref Frames
Format settings, CABAC : Yes
Format settings, ReFrames : 4 frames
Codec ID : V_MPEG4/ISO/AVC
Duration : 1 h 34 min
Bit rate : 5 005 kb/s
Width : 1 920 pixels
Height : 1 036 pixels
Display aspect ratio : 1.85:1
Frame rate mode : Constant
Frame rate : 23.976 FPS
Color space : YUV
Chroma subsampling : 4:2:0
Bit depth : 8 bits
Scan type : Progressive
Bits/(Pixel*Frame) : 0.105
Stream size : 3.31 GiB (85%)
Title : Lady.Bird.2017.1080p.BrRip.DTS.x264.Subthai.One2loadup.com
Writing library : x264 core 130 r2273 b3065e6
Encoding settings : cabac=1 / ref=3 / deblock=1:0:0 / analyse=0x3:0x113 / me=umh / subme=11 / psy=1 / psy_rd=1.00:0.00 / mixed_ref=1 / me_range=48 / chroma_me=1 / trellis=2 / 8x8dct=1 / cqm=0 / deadzone=21,11 / fast_pskip=1 / chroma_qp_offset=-2 / threads=22 / lookahead_threads=1 / sliced_threads=0 / nr=0 / decimate=1 / interlaced=0 / bluray_compat=0 / constrained_intra=0 / bframes=3 / b_pyramid=2 / b_adapt=1 / b_bias=0 / direct=1 / weightb=1 / open_gop=0 / weightp=2 / keyint=240 / keyint_min=24 / scenecut=40 / intra_refresh=0 / rc_lookahead=40 / rc=2pass / mbtree=1 / bitrate=5005 / ratetol=1.0 / qcomp=0.60 / qpmin=0 / qpmax=69 / qpstep=4 / cplxblur=20.0 / qblur=0.5 / ip_ratio=1.40 / aq=1:1.00
Language : English
Default : Yes
Forced : No
Color range : Limited
Color primaries : BT.709
Transfer characteristics : BT.709
Matrix coefficients : BT.709

Audio
ID : 2
Format : DTS
Format/Info : Digital Theater Systems
Codec ID : A_DTS
Duration : 1 h 34 min
Bit rate mode : Constant
Bit rate : 755 kb/s
Channel(s) : 6 channels
Channel layout : C L R Ls Rs LFE
Sampling rate : 48.0 kHz
Frame rate : 93.750 FPS (512 SPF)
Bit depth : 24 bits
Compression mode : Lossy
Stream size : 511 MiB (13%)
Title : English DTS
Language : English
Default : Yes
Forced : Yes

Text #1
ID : 3
Format : VobSub
Codec ID : S_VOBSUB
Codec ID/Info : Picture based subtitle format used on DVDs
Language : Thai
Default : Yes
Forced : Yes

Text #2
ID : 4
Format : VobSub
Codec ID : S_VOBSUB
Codec ID/Info : Picture based subtitle format used on DVDs
Title : Thai 480p
Language : Thai
Default : No
Forced : No

Text #3
ID : 5
Format : VobSub
Codec ID : S_VOBSUB
Codec ID/Info : Picture based subtitle format used on DVDs
Title : Thai 720p
Language : Thai
Default : No
Forced : No

Text #4
ID : 6
Format : VobSub
Codec ID : S_VOBSUB
Codec ID/Info : Picture based subtitle format used on DVDs
Title : Thai 1080p
Language : Thai
Default : No
Forced : No

Text #5
ID : 7
Format : VobSub
Codec ID : S_VOBSUB
Codec ID/Info : Picture based subtitle format used on DVDs
Title : Thai 1080p Yellow
Language : Thai
Default : No
Forced : No

Text #6
ID : 8
Format : VobSub
Codec ID : S_VOBSUB
Codec ID/Info : Picture based subtitle format used on DVDs
Title : Thai 1080p BIG
Language : Thai
Default : No
Forced : No

Text #7
ID : 9
Format : PGS
Codec ID : S_HDMV/PGS
Codec ID/Info : Picture based subtitle format used on BDs/HD-DVDs
Title : Thai PGS BluRay Master
Language : Thai
Default : No
Forced : No

Text #8
ID : 10
Format : PGS
Codec ID : S_HDMV/PGS
Codec ID/Info : Picture based subtitle format used on BDs/HD-DVDs
Title : English
Language : English
Default : No
Forced : No

Menu
00:00:00.000 : en:Chapter 1
00:03:59.155 : en:Chapter 2
00:08:08.446 : en:Chapter 3
00:14:03.300 : en:Chapter 4
00:18:58.428 : en:Chapter 5
00:22:53.997 : en:Chapter 6
00:27:33.485 : en:Chapter 7
00:32:57.350 : en:Chapter 8
00:35:30.127 : en:Chapter 9
00:41:11.677 : en:Chapter 10
00:46:29.077 : en:Chapter 11
00:51:40.055 : en:Chapter 12
00:56:23.463 : en:Chapter 13
01:02:17.567 : en:Chapter 14
01:04:44.714 : en:Chapter 15
01:09:10.396 : en:Chapter 16
01:14:44.104 : en:Chapter 17
01:21:55.076 : en:Chapter 18
01:26:40.069 : en:Chapter 19
01:29:10.386 : en:Chapter 20

DOWNLOAD


PART01 |||| PART02 |||| PART03 |||| PART04

PART01 |||| PART02 |||| PART03 |||| PART04

PART01 |||| PART02 |||| PART03 |||| PART04

PART01 |||| PART02 |||| PART03 |||| PART04

PART01 |||| PART02 |||| PART03 |||| PART04


3 Comments
  1. Boy says

    โหลดไม่ได้แล้วครับ

    1. Admin
      Admin says

      แก้ไขเรียบร้อยฮ๊ะ

      1. Boy says

        ขอบคุณครับ

Leave A Reply

อีเมล์ของคุณจะไม่แสดงให้เห็น Your email address will not be published.

%d bloggers like this: