[ฝรั่ง] Inside Man: Most Wanted (2019) [1080p] [พากย์อังกฤษ DTS] [Soundtrack บรรยายไทย + อังกฤษ] [เสียงอังกฤษ + ซับไทย] [PANDAFILE]

0

Inside Man: Most Wanted (2019)

โหลดหนัง Inside Man: Most Wanted (2019)

Inside Man: Most Wanted (2019) 1h 45min | Action | 24 September 2019 (USA) Summary: An NYPD hostage negotiator teams up with a federal agent to rescue dozens of tourists held hostage during a 10-hour siege at the U.S. Federal Reserve.
Countries: USALanguages: English

เรื่องย่อ Inside Man: Most Wanted (2019)

ภาพยนตร์อาชญากรรมอเมริกันที่กำกับโดย M. J. Bassett และนำแสดงโดย Aml Ameen
ภาพยนตร์ซีรีส์ต่อเนื่องในปี 2006 Inside Man ได้เปิดตัววิดีโอแบบตัวต่อตัวในสหรัฐอเมริกาเมื่อวัน ที่ 24 กันยายน 2019!!!

Complete name : [MINI Super-HQ]_Inside.Man.Most.Wanted.2019.1080p.BrRip.DTS.x264.One2loadup.com.mkv
Format : Matroska
Format version : Version 4
File size : 3.84 GiB
Duration : 1 h 45 min
Overall bit rate : 5 204 kb/s
Movie name : [MINI Super-HQ]_Inside.Man.Most.Wanted.2019.1080p.BrRip.DTS.x264.One2loadup.com
Encoded date : UTC 2019-10-29 15:00:22
Writing application : mkvmerge v9.8.0 (‘Kuglblids’) 64bit
Writing library : libebml v1.3.4 + libmatroska v1.4.5

Video
ID : 1
Format : AVC
Format/Info : Advanced Video Codec
Format profile : [email protected]
Format settings : CABAC / 4 Ref Frames
Format settings, CABAC : Yes
Format settings, ReFrames : 4 frames
Codec ID : V_MPEG4/ISO/AVC
Duration : 1 h 45 min
Bit rate : 4 344 kb/s
Width : 1 920 pixels
Height : 960 pixels
Display aspect ratio : 2.000
Frame rate mode : Constant
Frame rate : 23.976 (24000/1001) FPS
Color space : YUV
Chroma subsampling : 4:2:0
Bit depth : 8 bits
Scan type : Progressive
Bits/(Pixel*Frame) : 0.098
Stream size : 3.21 GiB (83%)
Title : [MINI Super-HQ]_[email protected]ZEZA
Writing library : x264 core 157 r2935 545de2f
Encoding settings : cabac=1 / ref=3 / deblock=1:0:0 / analyse=0x3:0x133 / me=umh / subme=11 / psy=1 / psy_rd=1.00:0.00 / mixed_ref=1 / me_range=48 / chroma_me=1 / trellis=2 / 8x8dct=1 / cqm=0 / deadzone=21,11 / fast_pskip=1 / chroma_qp_offset=-2 / threads=10 / lookahead_threads=1 / sliced_threads=0 / nr=0 / decimate=1 / interlaced=0 / bluray_compat=0 / constrained_intra=0 / bframes=3 / b_pyramid=2 / b_adapt=1 / b_bias=0 / direct=3 / weightb=1 / open_gop=0 / weightp=2 / keyint=240 / keyint_min=24 / scenecut=40 / intra_refresh=0 / rc_lookahead=60 / rc=2pass / mbtree=1 / bitrate=4344 / ratetol=1.0 / qcomp=0.60 / qpmin=0 / qpmax=69 / qpstep=4 / cplxblur=20.0 / qblur=0.5 / vbv_maxrate=25000 / vbv_bufsize=31250 / nal_hrd=none / filler=0 / ip_ratio=1.40 / aq=1:1.00
Language : English
Default : Yes
Forced : No
Color range : Limited
Color primaries : BT.709
Transfer characteristics : BT.709
Matrix coefficients : BT.709

Audio
ID : 2
Format : DTS
Format/Info : Digital Theater Systems
Codec ID : A_DTS
Duration : 1 h 45 min
Bit rate mode : Constant
Bit rate : 755 kb/s
Channel(s) : 6 channels
Channel layout : C L R Ls Rs LFE
Sampling rate : 48.0 kHz
Frame rate : 93.750 FPS (512 SPF)
Bit depth : 24 bits
Compression mode : Lossy
Stream size : 571 MiB (14%)
Title : English DTS
Language : English
Default : Yes
Forced : No

Text #1
ID : 3
Format : VobSub
Codec ID : S_VOBSUB
Codec ID/Info : Picture based subtitle format used on DVDs
Duration : 33 s 314 ms
Bit rate : 2 967 b/s
Count of elements : 1
Stream size : 12.1 KiB (0%)
Language : Thai
Default : Yes
Forced : Yes

Text #2
ID : 4
Format : VobSub
Codec ID : S_VOBSUB
Codec ID/Info : Picture based subtitle format used on DVDs
Duration : 1 h 44 min
Bit rate : 4 433 b/s
Count of elements : 1459
Stream size : 3.32 MiB (0%)
Title : Thai 720p
Language : Thai
Default : No
Forced : No

Text #3
ID : 5
Format : VobSub
Codec ID : S_VOBSUB
Codec ID/Info : Picture based subtitle format used on DVDs
Duration : 1 h 44 min
Bit rate : 7 885 b/s
Count of elements : 1459
Stream size : 5.91 MiB (0%)
Title : Thai 1080p
Language : Thai
Default : No
Forced : No

Text #4
ID : 6
Format : VobSub
Codec ID : S_VOBSUB
Codec ID/Info : Picture based subtitle format used on DVDs
Duration : 1 h 44 min
Bit rate : 7 885 b/s
Count of elements : 1459
Stream size : 5.91 MiB (0%)
Title : Thai 1080p Yellow
Language : Thai
Default : No
Forced : No

Text #5
ID : 7
Format : VobSub
Codec ID : S_VOBSUB
Codec ID/Info : Picture based subtitle format used on DVDs
Duration : 1 h 44 min
Bit rate : 11.0 kb/s
Count of elements : 1459
Stream size : 8.23 MiB (0%)
Title : Thai 1080p BIG
Language : Thai
Default : No
Forced : No

Text #6
ID : 8
Format : PGS
Codec ID : S_HDMV/PGS
Codec ID/Info : Picture based subtitle format used on BDs/HD-DVDs
Duration : 1 h 44 min
Bit rate : 31.6 kb/s
Count of elements : 2918
Stream size : 23.7 MiB (1%)
Title : Thai BluRay Master
Language : Thai
Default : No
Forced : No

Text #7
ID : 9
Format : PGS
Codec ID : S_HDMV/PGS
Codec ID/Info : Picture based subtitle format used on BDs/HD-DVDs
Duration : 1 h 41 min
Bit rate : 45.0 kb/s
Count of elements : 3190
Stream size : 32.8 MiB (1%)
Title : English
Language : English
Default : No
Forced : No

Menu
00:00:00.000 : en:01
00:07:20.190 : en:02
00:12:18.947 : en:03
00:18:31.319 : en:04
00:24:28.342 : en:05
00:30:21.403 : en:06
00:34:20.475 : en:07
00:40:11.576 : en:08
00:45:36.150 : en:09
00:50:35.199 : en:10
00:54:39.401 : en:11
00:58:05.982 : en:12
01:01:56.546 : en:13
01:06:57.555 : en:14
01:13:02.169 : en:15
01:15:33.696 : en:16
01:21:11.533 : en:17
01:27:34.374 : en:18
01:33:13.004 : en:19
01:40:59.845 : en:20

DOWNLOAD


PART01 |||| PART02 |||| PART03 |||| PART04

PART01 |||| PART02 |||| PART03 |||| PART04

PART01 |||| PART02 |||| PART03 |||| PART04

PART01 |||| PART02 |||| PART03 |||| PART04


Leave A Reply

Your email address will not be published.

%d bloggers like this: