[ฝรั่ง] Infinite Storm (2022) อินฟินิตี้ สตรอม [1080p] [พากย์อังกฤษ 5.1] [Soundtrack บรรยายไทย + อังกฤษ] [เสียงอังกฤษ + ซับไทย] [USERLOAD]

2

โหลดหนัง Infinite Storm (2022) อินฟินิตี้ สตรอม

Infinite Storm | March 25, 2022 (United States) Summary: When a climber gets caught in a blizzard, she encounters a stranded stranger and must get them both down the mountain before nightfall.
Countries: United Kingdom, Poland, AustraliaLanguages: English

เรื่องย่อ Infinite Storm (2022) อินฟินิตี้ สตรอม

วินาทีชีวิตที่อยู่บนความเป็นและความตายของนักปีนเขา เมื่อเธอต้องติดอยู่ในพายุหิมะ และได้พบกับคนแปลกหน้าที่ติดอยู่และต้องพาพวกเขาทั้ง สองลงจากภูเขาก่อนค่ำ ด้วยความตั้งใจที่เด็ดเดี่ยเพื่อที่จะลุกขึ้นมาพบกับ โอกาสและหนทางอีกครั้ง!!!

Complete name : Infinite.Storm.2022.1080p.WEB-DL.EAC3.x264.Subthai.One2loadup.com.mkv
Format : Matroska
Format version : Version 4
File size : 4.25 GiB
Duration : 1 h 37 min
Overall bit rate : 6 241 kb/s
Movie name : Infinite.Storm.2022.1080p.WEB-DL.EAC3.x264.Subthai.One2loadup.com
Encoded date : UTC 2022-04-26 12:01:20
Writing application : mkvmerge v55.0.0 (‘Waiting For Space’) 64-bit
Writing library : libebml v1.4.2 + libmatroska v1.6.4

Video
ID : 1
Format : AVC
Format/Info : Advanced Video Codec
Format profile : High@L4
Format settings : CABAC / 3 Ref Frames
Format settings, CABAC : Yes
Format settings, Reference : 3 frames
Codec ID : V_MPEG4/ISO/AVC
Duration : 1 h 37 min
Bit rate : 5 846 kb/s
Width : 1 920 pixels
Height : 802 pixels
Display aspect ratio : 2.40:1
Frame rate mode : Constant
Frame rate : 23.976 (24000/1001) FPS
Color space : YUV
Chroma subsampling : 4:2:0
Bit depth : 8 bits
Scan type : Progressive
Bits/(Pixel*Frame) : 0.158
Stream size : 3.98 GiB (94%)
Title : Infinite.Storm.2022.1080p.WEB-DL.EAC3.x264.Subthai.One2loadup.com
Language : English
Default : Yes
Forced : No
Color range : Limited
Color primaries : BT.709
Transfer characteristics : BT.709
Matrix coefficients : BT.709

Audio
ID : 2
Format : E-AC-3
Format/Info : Enhanced AC-3
Commercial name : Dolby Digital Plus
Codec ID : A_EAC3
Duration : 1 h 37 min
Bit rate mode : Constant
Bit rate : 384 kb/s
Channel(s) : 6 channels
Channel layout : L R C LFE Ls Rs
Sampling rate : 48.0 kHz
Frame rate : 31.250 FPS (1536 SPF)
Compression mode : Lossy
Stream size : 268 MiB (6%)
Title : E-AC3 English
Language : English
Service kind : Complete Main
Default : Yes
Forced : No

Text #1
ID : 3
Format : VobSub
Muxing mode : zlib
Codec ID : S_VOBSUB
Codec ID/Info : Picture based subtitle format used on DVDs
Duration : 1 h 27 min
Bit rate : 4 912 b/s
Count of elements : 522
Stream size : 3.06 MiB (0%)
Title : Sub Thai 1080p
Language : Thai
Default : No
Forced : No

Text #2
ID : 4
Format : UTF-8
Codec ID : S_TEXT/UTF8
Codec ID/Info : UTF-8 Plain Text
Duration : 1 h 27 min
Bit rate : 49 b/s
Count of elements : 522
Stream size : 31.8 KiB (0%)
Title : Sub Thai SRT
Language : Thai
Default : No
Forced : No

Text #3
ID : 5
Format : PGS
Muxing mode : zlib
Codec ID : S_HDMV/PGS
Codec ID/Info : Picture based subtitle format used on BDs/HD-DVDs
Duration : 1 h 27 min
Bit rate : 14.7 kb/s
Count of elements : 1044
Stream size : 9.14 MiB (0%)
Title : Sub Thai PGS
Language : Thai
Default : Yes
Forced : No

Text #4
ID : 6
Format : UTF-8
Codec ID : S_TEXT/UTF8
Codec ID/Info : UTF-8 Plain Text
Duration : 1 h 28 min
Bit rate : 20 b/s
Count of elements : 523
Stream size : 13.5 KiB (0%)
Title : Sub English SRT
Language : English
Default : No
Forced : No

DOWNLOAD


PART01 |||| PART02 |||| PART03 |||| PART04 |||| PART05

PART01 |||| PART02 |||| PART03 |||| PART04 |||| PART05

PART01 |||| PART02 |||| PART03 |||| PART04 |||| PART05

PART01 |||| PART02 |||| PART03 |||| PART04 |||| PART05

PART01 |||| PART02 |||| PART03 |||| PART04 |||| PART05


2 Comments
  1. sumlee999
    sumlee999 says

    อยากดูแบบภาคไทยครับมีมั้ย

    1. admin
      admin says

      หนังยังไม่มีพากย์ไทยนะฮ๊ะ

Leave A Reply

อีเมล์ของคุณจะไม่แสดงให้เห็น Your email address will not be published.

%d bloggers like this: