[ฝรั่ง] Gold (2022) โกลด์ [1080p] [พากย์อังกฤษ 5.1] [Soundtrack บรรยายไทย + อังกฤษ] [เสียงอังกฤษ + ซับไทย] [USERLOAD]

0

โหลดหนัง Gold (2022) โกลด์

Gold Thriller | January 13, 2022 (Australia) Summary: When two men discover the biggest gold nugget ever found they must find a way to excavate it.
Countries: AustraliaLanguages: English

เรื่องย่อ Gold (2022) โกลด์

เมื่อชายสองคนค้นพบก้อนทองคำที่ใหญ่ที่สุดที่พวกเขาเคยพบ พวกเขาต้องหาทางขุดมันให้ได้

Complete name : Gold.2022.1080p.WEBRip.AC3.x264.Subthai.One2loadup.com.mkv
Format : Matroska
Format version : Version 4
File size : 4.03 GiB
Duration : 1 h 36 min
Overall bit rate : 5 975 kb/s
Movie name : Gold.2022.1080p.WEBRip.AC3.x264.Subthai.One2loadup.com
Encoded date : UTC 2022-01-27 08:49:01
Writing application : mkvmerge v64.0.0 (‘Willows’) 64-bit
Writing library : libebml v1.4.2 + libmatroska v1.6.4
Cover : Yes
Attachments : cover.jpg

Video
ID : 1
Format : AVC
Format/Info : Advanced Video Codec
Format profile : [email protected]
Format settings : CABAC / 4 Ref Frames
Format settings, CABAC : Yes
Format settings, Reference : 4 frames
Codec ID : V_MPEG4/ISO/AVC
Duration : 1 h 36 min
Bit rate : 5 575 kb/s
Width : 1 920 pixels
Height : 1 080 pixels
Display aspect ratio : 16:9
Frame rate mode : Constant
Frame rate : 24.000 FPS
Color space : YUV
Chroma subsampling : 4:2:0
Bit depth : 8 bits
Scan type : Progressive
Bits/(Pixel*Frame) : 0.112
Stream size : 3.76 GiB (93%)
Title : Gold.2022.1080p.WEBRip.AC3.x264.Subthai.One2loadup.com
Default : Yes
Forced : No
Color range : Limited
Color primaries : BT.709
Transfer characteristics : BT.709
Matrix coefficients : BT.709

Audio
ID : 2
Format : AC-3
Format/Info : Audio Coding 3
Commercial name : Dolby Digital
Codec ID : A_AC3
Duration : 1 h 36 min
Bit rate mode : Constant
Bit rate : 384 kb/s
Channel(s) : 6 channels
Channel layout : L R C LFE Ls Rs
Sampling rate : 48.0 kHz
Frame rate : 31.250 FPS (1536 SPF)
Compression mode : Lossy
Stream size : 265 MiB (6%)
Language : English
Service kind : Complete Main
Default : Yes
Forced : No

Text #1
ID : 3
Format : UTF-8
Codec ID : S_TEXT/UTF8
Codec ID/Info : UTF-8 Plain Text
Duration : 1 h 36 min
Bit rate : 25 b/s
Count of elements : 744
Stream size : 18.0 KiB (0%)
Title : SDH
Language : English
Default : No
Forced : No

Text #2
ID : 4
Format : PGS
Muxing mode : zlib
Codec ID : S_HDMV/PGS
Codec ID/Info : Picture based subtitle format used on BDs/HD-DVDs
Duration : 1 h 36 min
Bit rate : 17.8 kb/s
Count of elements : 1488
Stream size : 12.3 MiB (0%)
Title : SDH
Language : English
Default : No
Forced : No

Text #3
ID : 5
Format : UTF-8
Codec ID : S_TEXT/UTF8
Codec ID/Info : UTF-8 Plain Text
Duration : 1 h 30 min
Bit rate : 37 b/s
Count of elements : 441
Stream size : 24.7 KiB (0%)
Language : Thai
Default : Yes
Forced : No

Text #4
ID : 6
Format : PGS
Muxing mode : zlib
Codec ID : S_HDMV/PGS
Codec ID/Info : Picture based subtitle format used on BDs/HD-DVDs
Duration : 1 h 30 min
Bit rate : 9 169 b/s
Count of elements : 882
Stream size : 5.90 MiB (0%)
Language : Thai
Default : No
Forced : No

DOWNLOAD


PART01 |||| PART02 |||| PART03 |||| PART04 |||| PART05

PART01 |||| PART02 |||| PART03 |||| PART04 |||| PART05

PART01 |||| PART02 |||| PART03 |||| PART04 |||| PART05

PART01 |||| PART02 |||| PART03 |||| PART04 |||| PART05

PART01 |||| PART02 |||| PART03 |||| PART04 |||| PART05


Leave A Reply

อีเมล์ของคุณจะไม่แสดงให้เห็น Your email address will not be published.

%d bloggers like this: