[ฝรั่ง] Eat Pray Love (2010) อิ่ม มนต์ รัก [Director’s Cut] [1080p] [พากย์อังกฤษ 5.1] [Soundtrack บรรยายไทย + อังกฤษ] [เสียงอังกฤษ + ซับไทย] [PANDAFILE]

0

โหลดหนัง Eat Pray Love (2010) อิ่ม มนต์ รัก

Eat Pray Love (2010) 2h 13min | Biography, Drama, Romance | 13 August 2010 (USA) Summary: A married woman realizes how unhappy her marriage really is, and that her life needs to go in a different direction. After a painful divorce, she takes off on a round-the-world journey to "find herself".
Countries: USALanguages: English, Italian, Portuguese

เรื่องย่อ Eat Pray Love (2010) อิ่ม มนต์ รัก

เป็น เรื่องของ Liz Gilbert ที่แสดงโดย Julia Roberts ซึ่งเป็นคุณแม่สมัยใหม่ที่มีทุกสิ่งที่เธอต้องการ ไม่ว่าจะเป็นสามี บ้าน และความสำเร็จในหน้าที่การงาน แต่ก็เหมือนกันคนอื่นๆ เธอยังคงรู้สึกว่างเปล่า สับสน และพยายามค้นหาสิ่งที่ต้องการจริงๆในชีวิต เธอหย่าขาดกับสามี ออกห่างจากชีวิตสะดวกสบายที่คุ้นเคยและผจญกับความเสี ่ยงทุกอย่างที่เปลี่ยน แปลงชีวิตของเธอ และออกเดินทางเพื่อค้นหาตัวเอง ซึ่งทำให้เธอค้นพบถึงความสุขที่แท้จริงจากการทานเพื่ อสุขภาพที่อิตาลี พลังแห่งการสวดมนต์ที่อินเดีย และสุดท้ายสิ่งที่คาดไม่ถึงก็คือ การค้นพบรักแท้ของเธอที่บาหลี ซึ่ง Eat Pray Love นั้นสร้างจากเค้าโครงชีวประวัติของ Elizabeth Gilbert เพื่อนำมาใช้ในการเขียนบทภาพยนตร์ที่จะถูกถ่ายทอดโดย ดาราสาวเจ้าบทบาท Julia Roberts ให้เราได้ติดตามชมกัน โคลัมเบีย พิคเจอร์ส ภูมิใจเสนอ ภาพยนตร์รักโรแมนติก Eat pray Love อิ่ม มนต์ รัก นำแสดงโดย จูเลีย โรเบิร์ตส์ (ลิซ กิลเบิร์ต) เป็น ผู้หญิงสมัยใหม่ที่มีเป้าหมายในชีวิตทุ่ทเทให้กับการ เดินทางรอบโลกไปพร้อม ๆ กับการค้นหาและรื้อฟื้นความสัมพันธ์ของตัวตนที่แท้จร ิงของเธอเอง ใน Eat Pray Love เมื่อเธอเดินมาถึงจุดเปลี่ยนของชีวิตหลังจากการหย่าร้าง กิลเบิร์ตก็ตัดสินใจลาพักงานยาวหนึ่งปี ก้าวพ้นจากสิ่งที่คุ้นเคย และเสี่ยงทุกสิ่งทุกอย่าง เพื่อเปลี่ยนแปลงชีวิตของเธอเอง ในการเดินทางที่น่าหลงใหลและสุดวิเศษ เธอได้สัมผัสกับความสุขอันเรียบง่าย ที่เกิดจากการได้ลิ้มรสอาหารในอิตาลี พลังของผู้สวดภาวนาในอินเดีย และท้ายที่สุด เธอก็ได้พบความสงบภายในใจ และความสมดุลของความรักในบาหลีโดยไม่คาดคิด Eat Pray Love สร้างขึ้นจากเรื่องจริงที่มีแรงบันดาลใจพร้อมบทพิสูจ น์ให้เห็นว่า การปลดปล่อยตัวเองและมองโลกใบนี้ ไม่ได้มีแค่วิธีเดียว “ไม่แน่ว่า…..การเดินทาง การสวดมนต์ภาวนา และการได้ลิ้มรสอาหารอร่อย ๆ อาจทำให้คุณได้พบกับรักแท้…..” โคลัมเบีย พิคเจอร์ส ภูมิใจเสนอ ภาพยนตร์โดยแพลนบี เอนเตอร์เทนเมนต์ Eat Pray Love ภาพยนตร์เรื่องนี้นำแสดงโดย จูเลีย โรเบิร์ตส์ เจมส์ ฟรังโก้ ริชาร์ด เจนกินส์ วิโอลา เดวิส บิลลี ครูดัพ และ ฮาเวียร์ บาร์เดม กำกับโดย ไรอัน เมอร์ฟีย์

Complete name : Eat.Pray.Love.2010.DC.1080p.Blu-ray.DTS.Subthai.One2loadup.com.mkv
Format : Matroska
Format version : Version 4
File size : 4.90 GiB
Duration : 2 h 25 min
Overall bit rate : 4 818 kb/s
Movie name : Eat.Pray.Love.2010.DC.1080p.Blu-ray.DTS.Subthai.One2loadup.com
Encoded date : UTC 2020-07-18 15:17:40
Writing application : mkvmerge v48.0.0 (‘Fortress Around Your Heart’) 64-bit
Writing library : libebml v1.4.0 + libmatroska v1.6.0

Video
ID : 1
Format : AVC
Format/Info : Advanced Video Codec
Format profile : [email protected]
Format settings : CABAC / 3 Ref Frames
Format settings, CABAC : Yes
Format settings, ReFrames : 3 frames
Codec ID : V_MPEG4/ISO/AVC
Duration : 2 h 25 min
Bit rate : 3 262 kb/s
Width : 1 920 pixels
Height : 1 036 pixels
Display aspect ratio : 1.85:1
Frame rate mode : Constant
Frame rate : 23.976 (24000/1001) FPS
Color space : YUV
Chroma subsampling : 4:2:0
Bit depth : 8 bits
Scan type : Progressive
Bits/(Pixel*Frame) : 0.068
Stream size : 3.32 GiB (68%)
Title : Eat.Pray.Love.2010.DC.1080p.Blu-ray.DTS.Subthai.One2loadup.com
Language : English
Default : Yes
Forced : No

Audio
ID : 2
Format : DTS
Format/Info : Digital Theater Systems
Codec ID : A_DTS
Duration : 2 h 25 min
Bit rate mode : Constant
Bit rate : 1 509 kb/s
Channel(s) : 6 channels
Channel layout : C L R Ls Rs LFE
Sampling rate : 48.0 kHz
Frame rate : 93.750 FPS (512 SPF)
Bit depth : 24 bits
Compression mode : Lossy
Stream size : 1.54 GiB (31%)
Title : DTS English
Language : English
Default : Yes
Forced : No

Text #1
ID : 3
Format : VobSub
Muxing mode : zlib
Codec ID : S_VOBSUB
Codec ID/Info : Picture based subtitle format used on DVDs
Duration : 2 h 24 min
Bit rate : 9 800 b/s
Count of elements : 1643
Stream size : 10.2 MiB (0%)
Title : Sub Thai 1080p
Language : Thai
Default : No
Forced : No

Text #2
ID : 4
Format : UTF-8
Codec ID : S_TEXT/UTF8
Codec ID/Info : UTF-8 Plain Text
Duration : 2 h 24 min
Bit rate : 111 b/s
Count of elements : 1643
Stream size : 118 KiB (0%)
Title : Sub Thai SRT
Language : Thai
Default : No
Forced : No

Text #3
ID : 5
Format : PGS
Muxing mode : zlib
Codec ID : S_HDMV/PGS
Codec ID/Info : Picture based subtitle format used on BDs/HD-DVDs
Duration : 2 h 24 min
Bit rate : 32.1 kb/s
Count of elements : 3286
Stream size : 33.3 MiB (1%)
Title : Sub Thai PGS
Language : Thai
Default : Yes
Forced : No

Text #4
ID : 6
Format : VobSub
Muxing mode : zlib
Codec ID : S_VOBSUB
Codec ID/Info : Picture based subtitle format used on DVDs
Duration : 2 h 18 min
Bit rate : 11.7 kb/s
Count of elements : 1643
Stream size : 11.5 MiB (0%)
Title : Sub English 1080p
Language : English
Default : No
Forced : No

Text #5
ID : 7
Format : UTF-8
Codec ID : S_TEXT/UTF8
Codec ID/Info : UTF-8 Plain Text
Duration : 2 h 18 min
Bit rate : 59 b/s
Count of elements : 1643
Stream size : 60.2 KiB (0%)
Title : Sub English SRT
Language : English
Default : No
Forced : No

Text #6
ID : 8
Format : PGS
Muxing mode : zlib
Codec ID : S_HDMV/PGS
Codec ID/Info : Picture based subtitle format used on BDs/HD-DVDs
Duration : 2 h 18 min
Bit rate : 37.9 kb/s
Count of elements : 3286
Stream size : 37.5 MiB (1%)
Title : Sub English PGS
Language : English
Default : No
Forced : No

DOWNLOAD


PART01 |||| PART02 |||| PART03 |||| PART04 |||| PART05

PART01 |||| PART02 |||| PART03 |||| PART04 |||| PART05

PART01 |||| PART02 |||| PART03 |||| PART04 |||| PART05

PART01 |||| PART02 |||| PART03 |||| PART04 |||| PART05

PART01 |||| PART02 |||| PART03 |||| PART04 |||| PART05



Disable Comments
%d bloggers like this: