[ฝรั่ง] City Hunter (Nicky Larson et le parfum de Cupidon) (2018) ซิตี้ฮันเตอร์ สายลับคาสโนเวอร์ [1080p] [พากย์ไทย 5.1 + เสียงฝรั่งเศส DTS] [ไม่มีบรรยาย] [เสียงไทย] [OPENLOAD]

0

โหลดหนัง City Hunter (Nicky Larson et le parfum de Cupidon) (2018) ซิตี้ฮันเตอร์ สายลับคาสโนเวอร์

Nicky Larson et le parfum de Cupidon (2018) 1h 31min | Action, Comedy, Crime | 6 February 2019 (France) Summary: Nicky Larson, the best private investigator in the business, is called for a high-risk mission: to recover the perfume of Cupid, a perfume that would make irresistible the one who uses it.
Countries: FranceLanguages: French, English, Spanish

เรื่องย่อ City Hunter (Nicky Larson et le parfum de Cupidon) (2018) ซิตี้ฮันเตอร์ สายลับคาสโนเวอร์

พบปฏิบัติการโคตรมันส์ฮาใส่กระสุนความเกรียน 18+ ดัดแปลงจากการ์ตูนญี่ปุ่นยอดฮิต “CITY HUNTER” นิกกี้ ลาร์สัน (ฟิลลิเป้ ลาโชว์) นักสืบเอกชนขั้นเทพที่ไขคดีปริศนามานักต่อนัก แต่จุดอ่อนอย่างเดียวที่ทำให้เขาต้องปวกเปียกทุกครั้งที่เจอคือ สาวสุดเอ็กซ์! ลาร์สันต้องผจญภัยฝ่าภารกิจสุดป่วง โดยหนึ่งในเป้าหมายสำคัญคือการชิงเอาน้ำหอมกามเทพ น้ำหอมที่ทำให้ทุกคนที่ได้กลิ่นต้องหลงใหลหมดตัวหมดใจ

หนังดัดแปลงจากมังงะมาอีกแล้ว แต่ความพิเศษคือรอบนี้เป็นฝั่งหนังฝรั่งเศสที่ซื้อสิทธิ์มาทำบ้าง หลังปล่อยฮอลลีวู้ดและญี่ปุ่นทำมาตลอด และจะว่าไปมังงะ ซิตี้ฮันเตอร์ นั้นจัดเป็นผลงานภาพจำของยุค 90 เรื่องหนึ่งเลยทีเดียว โดยผลงานของอาจารย์โฮโจ ทซึคาสะ นี้ เคยได้รับการนำไปทำฉบับคนแสดงมาแล้วหลายครั้ง ทั้งฉบับ เฉินหลง ซึ่งนำต้นฉบับมาใส่สีตีไข่ได้มันมาก เมื่อปี 1993 (แต่ฉากที่ติดตาดันเป็นฉากเฉินหลงใส่ชุดชุนหลีจากเกม Street Fighter ซะงั้น) ต่อมาปี 2011 เกาหลีก็นำไปทำฉบับทีวีซีรีส์ มี อีมินโฮ แสดงนำ ก็เพิ่มความดราม่านำคอมเมดี้ซึ่งเป็นทางถนัดของเกาหลี และมาถึงฉบับล่าสุดนี้ที่ต้องบอกว่าคารวะต้นตำหรับมังงะได้เป๊ะมากถึงมากที่สุด ไม่ใช่แง่ของการทำคอสเพลย์ได้เหมือนเด๊ะ แต่เป็นการนำอารมณ์กลิ่นมู้ดโทนของมังงะมาใช้ได้ 100% อย่างแนบเนียนจริง ๆ

Complete name : City.Hunter.2018.1080p.BrRip.DTS.One2loadup.com.mkv
Format : Matroska
Format version : Version 4
File size : 3.59 GiB
Duration : 1 h 31 min
Overall bit rate mode : Constant
Overall bit rate : 5 630 kb/s
Movie name : City.Hunter.2018.1080p.BrRip.DTS.One2loadup.com
Encoded date : UTC 2019-07-11 10:00:45
Writing application : mkvmerge v35.0.0 (‘All The Love In The World’) 64-bit
Writing library : libebml v1.3.9 + libmatroska v1.5.2

Video
ID : 1
Format : AVC
Format/Info : Advanced Video Codec
Format profile : [email protected]
Format settings : CABAC / 1 Ref Frames
Format settings, CABAC : Yes
Format settings, ReFrames : 1 frame
Format settings, GOP : M=1, N=25
Codec ID : V_MPEG4/ISO/AVC
Duration : 1 h 31 min
Bit rate mode : Constant
Bit rate : 4 000 kb/s
Width : 1 920 pixels
Height : 800 pixels
Display aspect ratio : 2.40:1
Frame rate mode : Constant
Frame rate : 29.970 (30000/1001) FPS
Color space : YUV
Chroma subsampling : 4:2:0
Bit depth : 8 bits
Scan type : Progressive
Bits/(Pixel*Frame) : 0.087
Stream size : 2.55 GiB (71%)
Title : City.Hunter.2018.1080p.BrRip.DTS.One2loadup.com
Default : Yes
Forced : No

Audio #1
ID : 2
Format : AC-3
Format/Info : Audio Coding 3
Commercial name : Dolby Digital
Codec ID : A_AC3
Duration : 1 h 31 min
Bit rate mode : Constant
Bit rate : 640 kb/s
Channel(s) : 6 channels
Channel layout : L R C LFE Ls Rs
Sampling rate : 44.1 kHz
Frame rate : 28.711 FPS (1536 SPF)
Bit depth : 16 bits
Compression mode : Lossy
Stream size : 418 MiB (11%)
Title : 5.1 AC3-Thai 640k 417m
Language : Thai
Service kind : Complete Main
Default : Yes
Forced : No

Audio #2
ID : 3
Format : DTS
Format/Info : Digital Theater Systems
Codec ID : A_DTS
Duration : 1 h 31 min
Bit rate mode : Constant
Bit rate : 992 kb/s
Channel(s) : 6 channels
Channel layout : C L R Ls Rs LFE
Sampling rate : 12.0 kHz
Frame rate : 11.719 FPS (1024 SPF)
Bit depth : 16 bits
Compression mode : Lossy
Stream size : 647 MiB (18%)
Title : dts 5.1-Frenceh 12000-647m
Language : French
Default : No
Forced : No

DOWNLOAD


PART01 |||| PART02 |||| PART03 |||| PART04

PART01 |||| PART02 |||| PART03 |||| PART04

PART01 |||| PART02 |||| PART03 |||| PART04

PART01 |||| PART02 |||| PART03 |||| PART04


Leave A Reply

Your email address will not be published.

%d bloggers like this: