[ฝรั่ง] Brian Banks (2018) ไบรอันแบ๊งส์ [1080p] [พากย์ไทย 2.0 + เสียงอังกฤษ 5.1] [บรรยายไทย + อังกฤษ] [เสียงไทย + ซับไทย] [PANDAFILE]

2

โหลดหนัง Brian Banks (2018) ไบรอันแบ๊งส์

Brian Banks | August 9, 2019 (United States) Summary: A football player's dreams to play in the NFL are halted when he is wrongly convicted and sent to prison. Years later, he fights to clear his name within an unjust system.
Countries: United StatesLanguages: English

เรื่องย่อ Brian Banks (2018) ไบรอันแบ๊งส์

เรื่องจริงของ ไบรอัน แบงส์ อดีตนักกีฬาอเมริกันฟุตบอลตำแหน่ง ไลน์แบ็ค ที่ถูกฟ้องในข้อหาข่มขืนและทารุณกรรมทางเพศนักเรียนห ญิงเพื่อนร่วมชั้นเรียน จนเวลาผ่านไป 5 ปี เขาเดินหน้าเรียกร้องความเป็นธรรมและพิสูจน์ตัวเองว่ าจริงๆ แล้ว เขาไม่ได้ผิด เขาก็ติดต่อไปยังองค์กร California Innocence Project (CIP) ซึ่งเป็นองค์กรไม่แสวงหาผลกำไรเพื่อช่วยเหลือเหล่าคน บริสุทธิ์ที่ตกเป็นแพะรับบาปก่อนเอาชนะคดีได้ในที่สุ ด และเขาเดินตามความฝันของตัวเองอีกครั้ง เขาฝึกอย่างหนักจนในที่สุดก็ได้เซ็นสัญญากับทีมในลีค อเมริกันสูงสุด (NFL) อย่างทีม Atlanta Falcon”

Complete name : Brian.Banks.2018.1080p.BluRay.AC3.x264.One2loadup.com.mkv
Format : Matroska
Format version : Version 4
File size : 3.72 GiB
Duration : 1 h 39 min
Overall bit rate : 5 340 kb/s
Movie name : Brian.Banks.2018.1080p.BluRay.AC3.x264.One2loadup.com
Encoded date : UTC 2019-12-30 02:45:23
Writing application : mkvmerge v41.0.0 (‘Smarra’) 64-bit
Writing library : libebml v1.3.9 + libmatroska v1.5.2
Cover : Yes
Attachments : cover1.jpg

Video
ID : 1
Format : AVC
Format/Info : Advanced Video Codec
Format profile : [email protected]
Format settings : CABAC / 1 Ref Frames
Format settings, CABAC : Yes
Format settings, ReFrames : 1 frame
Format settings, GOP : M=1, N=25
Codec ID : V_MPEG4/ISO/AVC
Duration : 1 h 39 min
Bit rate mode : Constant
Bit rate : 4 000 kb/s
Width : 1 920 pixels
Height : 784 pixels
Display aspect ratio : 2.40:1
Frame rate mode : Constant
Frame rate : 29.970 (30000/1001) FPS
Color space : YUV
Chroma subsampling : 4:2:0
Bit depth : 8 bits
Scan type : Progressive
Bits/(Pixel*Frame) : 0.089
Stream size : 2.78 GiB (75%)
Title : Brian.Banks.2018.1080p.BluRay.AC3.x264.One2loadup.com
Language : English
Default : Yes
Forced : No

Audio #1
ID : 2
Format : AC-3
Format/Info : Audio Coding 3
Commercial name : Dolby Digital
Codec ID : A_AC3
Duration : 1 h 39 min
Bit rate mode : Constant
Bit rate : 640 kb/s
Channel(s) : 2 channels
Channel layout : L R
Sampling rate : 44.1 kHz
Frame rate : 28.711 FPS (1536 SPF)
Bit depth : 16 bits
Compression mode : Lossy
Stream size : 457 MiB (12%)
Title : AC3 2.0 TH
Language : Thai
Service kind : Complete Main
Default : Yes
Forced : No

Audio #2
ID : 3
Format : AC-3
Format/Info : Audio Coding 3
Commercial name : Dolby Digital
Codec ID : A_AC3
Duration : 1 h 39 min
Bit rate mode : Constant
Bit rate : 640 kb/s
Channel(s) : 6 channels
Channel layout : L R C LFE Ls Rs
Sampling rate : 44.1 kHz
Frame rate : 28.711 FPS (1536 SPF)
Bit depth : 16 bits
Compression mode : Lossy
Stream size : 457 MiB (12%)
Title : 5.1 AC3 EN
Language : English
Service kind : Complete Main
Default : No
Forced : No

Text #1
ID : 4
Format : PGS
Muxing mode : zlib
Codec ID : S_HDMV/PGS
Codec ID/Info : Picture based subtitle format used on BDs/HD-DVDs
Duration : 1 h 39 min
Bit rate : 38.6 kb/s
Count of elements : 2620
Stream size : 27.4 MiB (1%)
Title : Th.PGS. white
Language : Thai
Default : Yes
Forced : No

Text #2
ID : 5
Format : PGS
Muxing mode : zlib
Codec ID : S_HDMV/PGS
Codec ID/Info : Picture based subtitle format used on BDs/HD-DVDs
Duration : 1 h 34 min
Bit rate : 39.3 kb/s
Count of elements : 2936
Stream size : 26.6 MiB (1%)
Title : En.PGS.yellow
Language : English
Default : No
Forced : No

Text #3
ID : 6
Format : PGS
Muxing mode : zlib
Codec ID : S_HDMV/PGS
Codec ID/Info : Picture based subtitle format used on BDs/HD-DVDs
Duration : 1 h 34 min
Bit rate : 41.2 kb/s
Count of elements : 3090
Stream size : 27.9 MiB (1%)
Title : En.SDH.PGS.Orange
Language : English
Default : No
Forced : No

DOWNLOAD


PART01 |||| PART02 |||| PART03 |||| PART04

PART01 |||| PART02 |||| PART03 |||| PART04

PART01 |||| PART02 |||| PART03 |||| PART04

PART01 |||| PART02 |||| PART03 |||| PART04


2 Comments
  1. Thawatchai
    Thawatchai says

    ยังไม่ได้อัพโหลดครับ

    1. Admin
      Admin says

      แก้ไขเรียบร้อยยฮ๊ะ

Leave A Reply

อีเมล์ของคุณจะไม่แสดงให้เห็น Your email address will not be published.

%d bloggers like this: