[ฝรั่ง] Blue Lagoon: The Awakening (2012) บลูลากูน ผจญภัย รักติดเกาะ [1080p] [18+] [พากย์อังกฤษ 5.1] [Soundtrack บรรยายไทย] [เสียงอังกฤษ + ซับไทย] [PANDAFILE]

0

โหลดหนัง Blue Lagoon: The Awakening (2012) บลูลากูน ผจญภัย รักติดเกาะ

Blue Lagoon: Rettungslos verliebt (2012) 1h 25min | Drama, Romance | TV Movie 1 November 2013 Summary: Two high school students become stranded on a tropical island and must rely on each other for survival. They learn more about themselves and each other while falling in love.
Countries: USALanguages: English

เรื่องย่อ Blue Lagoon: The Awakening (2012) บลูลากูน ผจญภัย รักติดเกาะ

ดีน (เบรนตัน ทเวทส์) และ เอ็มม่า (อินเดียนา อีแวนส์) สองนักเรียนมัธยมปลายได้เดินทางไปกับทริปของโรงเรียน แต่แล้วทั้งคู่ก็ได้ตกจากเรือและได้ลอยไปติดอยู่บนเกาะเขตร้อน พวกเขาต้องพึ่งพาซึ่งกันและกันเพื่อความอยู่รอด และได้เรียนรู้เพิ่มเติมเกี่ยวกับตัวพวกเขาเอง ก่อนที่มันจะค่อยๆ กลายเป็นความรักระหว่างพวกเขาสองคน

Complete name : Blue.Lagoon.The.Awakening.2012.1080p.WEB-DL.AC3.x264.Subthai.One2loadup.com.mkv
Format : Matroska
Format version : Version 4
File size : 3.52 GiB
Duration : 1 h 28 min
Overall bit rate : 5 663 kb/s
Movie name : Blue.Lagoon.The.Awakening.2012.1080p.WEB-DL.AC3.x264.Subthai.One2loadup.com
Encoded date : UTC 2020-05-08 12:12:49
Writing application : mkvmerge v46.0.0 (‘No Deeper Escape’) 64-bit
Writing library : libebml v1.3.10 + libmatroska v1.5.2

Video
ID : 1
Format : AVC
Format/Info : Advanced Video Codec
Format profile : [email protected]
Format settings : CABAC / 4 Ref Frames
Format settings, CABAC : Yes
Format settings, ReFrames : 4 frames
Codec ID : V_MPEG4/ISO/AVC
Duration : 1 h 28 min
Bit rate : 5 000 kb/s
Width : 1 920 pixels
Height : 1 076 pixels
Display aspect ratio : 16:9
Frame rate mode : Constant
Frame rate : 23.976 (24000/1001) FPS
Color space : YUV
Chroma subsampling : 4:2:0
Bit depth : 8 bits
Scan type : Progressive
Bits/(Pixel*Frame) : 0.101
Stream size : 3.09 GiB (88%)
Title : Blue.Lagoon.The.Awakening.2012.1080p.WEB-DL.AC3.x264.Subthai.One2loadup.com
Writing library : x264 core 157 r2935 545de2f
Encoding settings : cabac=1 / ref=1 / deblock=1:0:0 / analyse=0x1:0x111 / me=hex / subme=2 / psy=1 / psy_rd=1.00:0.00 / mixed_ref=0 / me_range=16 / chroma_me=1 / trellis=0 / 8x8dct=0 / cqm=0 / deadzone=21,11 / fast_pskip=1 / chroma_qp_offset=0 / threads=10 / lookahead_threads=3 / sliced_threads=0 / nr=0 / decimate=1 / interlaced=0 / bluray_compat=0 / constrained_intra=0 / bframes=3 / b_pyramid=2 / b_adapt=1 / b_bias=0 / direct=1 / weightb=1 / open_gop=0 / weightp=1 / keyint=240 / keyint_min=24 / scenecut=40 / intra_refresh=0 / rc_lookahead=10 / rc=abr / mbtree=1 / bitrate=5000 / ratetol=1.0 / qcomp=0.60 / qpmin=0 / qpmax=69 / qpstep=4 / vbv_maxrate=20000 / vbv_bufsize=25000 / nal_hrd=none / filler=0 / ip_ratio=1.40 / aq=1:1.00
Default : Yes
Forced : No
Color range : Limited
Color primaries : BT.709
Transfer characteristics : BT.709
Matrix coefficients : BT.709

Audio
ID : 2
Format : AC-3
Format/Info : Audio Coding 3
Commercial name : Dolby Digital
Codec ID : A_AC3
Duration : 1 h 28 min
Bit rate mode : Constant
Bit rate : 640 kb/s
Channel(s) : 6 channels
Channel layout : L R C LFE Ls Rs
Sampling rate : 48.0 kHz
Frame rate : 31.250 FPS (1536 SPF)
Bit depth : 16 bits
Compression mode : Lossy
Delay relative to video : -5 ms
Stream size : 407 MiB (11%)
Title : English 5.1
Language : English
Service kind : Complete Main
Default : Yes
Forced : No

Text #1
ID : 3
Format : PGS
Muxing mode : zlib
Codec ID : S_HDMV/PGS
Codec ID/Info : Picture based subtitle format used on BDs/HD-DVDs
Duration : 1 h 26 min
Bit rate : 34.3 kb/s
Count of elements : 1874
Stream size : 21.1 MiB (1%)
Title : Thai Angsana
Language : Thai
Default : Yes
Forced : No

Text #2
ID : 4
Format : PGS
Muxing mode : zlib
Codec ID : S_HDMV/PGS
Codec ID/Info : Picture based subtitle format used on BDs/HD-DVDs
Duration : 1 h 26 min
Bit rate : 31.3 kb/s
Count of elements : 1874
Stream size : 19.3 MiB (1%)
Title : Thai Yellow
Language : Thai
Default : No
Forced : No

Text #3
ID : 5
Format : PGS
Muxing mode : zlib
Codec ID : S_HDMV/PGS
Codec ID/Info : Picture based subtitle format used on BDs/HD-DVDs
Duration : 1 h 26 min
Bit rate : 33.1 kb/s
Count of elements : 1874
Stream size : 20.4 MiB (1%)
Title : Thai Sarabun
Language : Thai
Default : No
Forced : No

Text #4
ID : 6
Format : UTF-8
Codec ID : S_TEXT/UTF8
Codec ID/Info : UTF-8 Plain Text
Duration : 1 h 26 min
Bit rate : 125 b/s
Count of elements : 937
Stream size : 79.3 KiB (0%)
Title : Thai srt
Language : Thai
Default : No
Forced : No

Text #5
ID : 7
Format : UTF-8
Codec ID : S_TEXT/UTF8
Codec ID/Info : UTF-8 Plain Text
Duration : 1 h 27 min
Bit rate : 57 b/s
Count of elements : 1068
Stream size : 37.2 KiB (0%)
Title : English srt
Language : English
Default : No
Forced : No

Menu
00:00:00.000 : :Chapter 1
00:05:58.024 : :Chapter 2
00:13:04.075 : :Chapter 3
00:18:23.019 : :Chapter 4
00:23:12.057 : :Chapter 5
00:28:18.071 : :Chapter 6
00:31:45.070 : :Chapter 7
00:37:20.071 : :Chapter 8
00:44:03.015 : :Chapter 9
00:47:14.040 : :Chapter 10
00:50:45.000 : :Chapter 11
01:00:38.009 : :Chapter 12
01:03:32.017 : :Chapter 13
01:09:28.998 : :Chapter 14
01:14:22.041 : :Chapter 15
01:20:54.016 : :Chapter 16

DOWNLOAD


PART01 |||| PART02 |||| PART03 |||| PART04

PART01 |||| PART02 |||| PART03 |||| PART04

PART01 |||| PART02 |||| PART03 |||| PART04

PART01 |||| PART02 |||| PART03 |||| PART04

PART01 |||| PART02 |||| PART03 |||| PART04


Leave A Reply

Your email address will not be published.

%d bloggers like this: