[ฝรั่ง] Beyond The Edge (2018) เกมเดิมพัน คนพลังเหนือโลก [1080p] [พากย์ไทยมาสเตอร์ + เสียงอังกฤษ DTS] [บรรยายไทย + อังกฤษ] [เสียงไทย + ซับไทย] [OPENLOAD]

2

โหลดหนัง Beyond The Edge (2018) เกมเดิมพัน คนพลังเหนือโลก

Za granyu realnosti (2018) 1h 41min | Action, Adventure, Fantasy | 1 March 2018 (Russia) Summary: Contemporary Moscow. A talented gambler gathers a team of people with supernatural powers to win big at a casino. But they find a much stronger mystical rival.
Countries: RussiaLanguages: English

เรื่องย่อ Beyond The Edge (2018) เกมเดิมพัน คนพลังเหนือโลก

ไมเคิล เป็นนักเดิมพันที่สนแต่เรื่องเงิน โดยเขาเตรียมแผนการทั้งหมดที่คาสิโนสุดหรูใจกลางยุโรป เขาใช้ความสามารถทั้งหมดเพื่อจะ ‘เอาชนะ’ คาสิโน ทั้งการนับไพ่ ใช้อุปกรณ์ที่ซ่อนไว้ และใช้เคล็ดลับทางจิตวิทยา แต่เขาต้องมาพบกับคู่แข่งคนหนึ่งที่มีพลังวิเศษ เขาจึงสูญเสียทุกอย่างที่เคยได้มาในขณะเดียวกัน กลโกงของเขาก็ถูกเปิดโปง เจ้าของคาสิโนมั่นใจว่า ไมเคิลมีผู้สมรู้ร่วมคิด และกล่าวว่าเขาต้องชดใช้เงินทั้งหมดนั้นภายในหนึ่งอาทิตย์ ไม่เช่นนั้นเขาจะต้องตาย เขารู้ว่าเวลาเพียงหนึ่งอาทิตย์ไม่เพียงพอที่จะหาเงินมาได้ สถานการณ์ดูเหมือนจะไร้ความหวัง แต่แล้วไมเคิลก็ผุดไอเดียสุดวิเศษขึ้น เนื่องจากชายคนที่ขโมยเงินเขาไปนั้นใช้พลังวิเศษ เขาจึงตัดสินใจที่จะรวบรวมทีมของเหล่าคนมีพลังวิเศษเ พื่อเงินจำนวนหนึ่งที่เขาต้องการจากคาสิโน ไมเคิลพบกับชายที่มีพลังเหนือธรรมชาติ คนที่มีพลังเคลื่อยย้ายวัตถุ และยังพบกับคนที่สามารถสะกดจิตที่สามารถสั่งงานคนอื่ น และพบกับชายที่สามารถควบคุมกล้องและอุปกรณ์ต่างๆได้ พวกเขาพร้อมใจรวมกันเป็นทีมโดยมีหญิงสาวที่สามารถอ่า นความคิดคนอื่นได้ โดยเธอจะเป็นคนส่งต่อความคิดให้คนอื่น อย่างไรก็ตาม แผนการของไมเคิลและทีมจะถูกควบคุมโดยนักธุรกิจลึกลับ ชื่อว่า กอร์ดอน สิ่งที่ไมเคิลไม่ได้ตระหนักถึง คือ การมีโลกใบใหม่อีกใบอยู่เบื้องหลังเหล่าเพื่อนๆที่มี พลังวิเศษ ในขณะที่แผนการอันลึกลับถูกเปิดเผย ไมเคิลพบว่าตัวเองตกอยู่ในสถานการณ์มืดแปดด้านที่ทำให้เขาและทีมที่เขารักไปตกอยู่ในอันตราย เพื่อที่จะรักษาเพื่อนๆและความรัก ไมเคิลจะต้องก้าวข้ามขอบเขตของพลังนั้นไปให้ได้…!!!

Complete name : Beyond.the.Edge.2018.1080p.BluRay.DTS.x264.THM.One2loadup.com.mkv
Format : Matroska
Format version : Version 4
File size : 4.45 GiB
Duration : 1 h 50 min
Overall bit rate mode : Variable
Overall bit rate : 5 770 kb/s
Movie name : Beyond.the.Edge.2018.1080p.BluRay.DTS.x264.THM.One2loadup.com
Encoded date : UTC 2019-08-31 14:07:58
Writing application : mkvmerge v8.3.0 (‘Over the Horizon’) 64bit
Writing library : libebml v1.3.1 + libmatroska v1.4.2
Cover : Yes
Attachments : cover_land.jpg / small_cover.jpg / small_cover_land.jpg / cover.jpg

Video
ID : 1
Format : AVC
Format/Info : Advanced Video Codec
Format profile : [email protected]
Format settings : CABAC / 4 Ref Frames
Format settings, CABAC : Yes
Format settings, ReFrames : 4 frames
Codec ID : V_MPEG4/ISO/AVC
Duration : 1 h 50 min
Bit rate : 2 500 kb/s
Width : 1 920 pixels
Height : 804 pixels
Display aspect ratio : 2.40:1
Frame rate mode : Constant
Frame rate : 23.976 (23976/1000) FPS
Color space : YUV
Chroma subsampling : 4:2:0
Bit depth : 8 bits
Scan type : Progressive
Bits/(Pixel*Frame) : 0.068
Stream size : 1.93 GiB (43%)
Title : Beyond.the.Edge.2018.1080p.BluRay.DTS.x264.THM.One2loadup.com
Writing library : x264 core 152 r2851M ba24899
Encoding settings : cabac=1 / ref=4 / deblock=1:-1:-1 / analyse=0x3:0x113 / me=umh / subme=9 / psy=1 / psy_rd=1.00:0.15 / mixed_ref=1 / me_range=24 / chroma_me=1 / trellis=2 / 8x8dct=1 / cqm=0 / deadzone=21,11 / fast_pskip=1 / chroma_qp_offset=-3 / threads=32 / lookahead_threads=4 / sliced_threads=0 / nr=0 / decimate=1 / interlaced=0 / bluray_compat=0 / constrained_intra=0 / bframes=3 / b_pyramid=2 / b_adapt=2 / b_bias=0 / direct=3 / weightb=1 / open_gop=0 / weightp=2 / keyint=250 / keyint_min=25 / scenecut=40 / intra_refresh=0 / rc_lookahead=50 / rc=2pass / mbtree=1 / bitrate=2500 / ratetol=1.0 / qcomp=0.60 / qpmin=0 / qpmax=69 / qpstep=4 / cplxblur=20.0 / qblur=0.5 / vbv_maxrate=31250 / vbv_bufsize=31250 / nal_hrd=none / filler=0 / ip_ratio=1.40 / aq=3:1.00
Default : Yes
Forced : No

Audio #1
ID : 2
Format : DTS XLL
Format/Info : Digital Theater Systems
Commercial name : DTS-HD Master Audio
Codec ID : A_DTS
Duration : 1 h 50 min
Bit rate mode : Variable
Bit rate : 2 553 kb/s
Channel(s) : 6 channels
Channel layout : C L R Ls Rs LFE
Sampling rate : 48.0 kHz
Frame rate : 93.750 FPS (512 SPF)
Bit depth : 24 bits
Compression mode : Lossless
Stream size : 1.97 GiB (44%)
Title : English DTS-HD.MA 5.1
Language : English
Default : Yes
Forced : No

Audio #2
ID : 3
Format : AC-3
Format/Info : Audio Coding 3
Commercial name : Dolby Digital
Codec ID : A_AC3
Duration : 1 h 50 min
Bit rate mode : Constant
Bit rate : 448 kb/s
Channel(s) : 6 channels
Channel layout : L R C LFE Ls Rs
Sampling rate : 48.0 kHz
Frame rate : 31.250 FPS (1536 SPF)
Bit depth : 16 bits
Compression mode : Lossy
Stream size : 353 MiB (8%)
Title : English 5.1
Language : English
Service kind : Complete Main
Default : No
Forced : No

Audio #3
ID : 4
Format : AC-3
Format/Info : Audio Coding 3
Commercial name : Dolby Digital
Codec ID : A_AC3
Duration : 1 h 50 min
Bit rate mode : Constant
Bit rate : 192 kb/s
Channel(s) : 2 channels
Channel layout : L R
Sampling rate : 48.0 kHz
Frame rate : 31.250 FPS (1536 SPF)
Bit depth : 16 bits
Compression mode : Lossy
Stream size : 151 MiB (3%)
Title : Thai Master
Language : Thai
Service kind : Complete Main
Default : No
Forced : No

Text #1
ID : 5
Format : VobSub
Muxing mode : zlib
Codec ID : S_VOBSUB
Codec ID/Info : Picture based subtitle format used on DVDs
Duration : 1 h 45 min
Bit rate : 2 858 b/s
Count of elements : 927
Stream size : 2.16 MiB (0%)
Title : English
Language : English
Default : No
Forced : No

Text #2
ID : 6
Format : VobSub
Muxing mode : zlib
Codec ID : S_VOBSUB
Codec ID/Info : Picture based subtitle format used on DVDs
Duration : 1 h 46 min
Bit rate : 1 213 b/s
Count of elements : 1019
Stream size : 949 KiB (0%)
Title : Thai 480P
Language : Thai
Default : No
Forced : No

Text #3
ID : 7
Format : VobSub
Muxing mode : zlib
Codec ID : S_VOBSUB
Codec ID/Info : Picture based subtitle format used on DVDs
Duration : 1 h 46 min
Bit rate : 2 154 b/s
Count of elements : 1019
Stream size : 1.64 MiB (0%)
Title : Thai 720P
Language : Thai
Default : No
Forced : No

Text #4
ID : 8
Format : VobSub
Muxing mode : zlib
Codec ID : S_VOBSUB
Codec ID/Info : Picture based subtitle format used on DVDs
Duration : 1 h 46 min
Bit rate : 3 515 b/s
Count of elements : 1019
Stream size : 2.68 MiB (0%)
Title : Thai 1080P
Language : Thai
Default : No
Forced : No

Text #5
ID : 9
Format : VobSub
Muxing mode : zlib
Codec ID : S_VOBSUB
Codec ID/Info : Picture based subtitle format used on DVDs
Duration : 1 h 46 min
Bit rate : 4 253 b/s
Count of elements : 1019
Stream size : 3.25 MiB (0%)
Title : Thai 1080P BIG
Language : Thai
Default : No
Forced : No

Text #6
ID : 10
Format : VobSub
Muxing mode : zlib
Codec ID : S_VOBSUB
Codec ID/Info : Picture based subtitle format used on DVDs
Duration : 1 h 46 min
Bit rate : 3 515 b/s
Count of elements : 1019
Stream size : 2.68 MiB (0%)
Title : Thai 1080P OUT
Language : Thai
Default : No
Forced : No

Text #7
ID : 11
Format : VobSub
Muxing mode : zlib
Codec ID : S_VOBSUB
Codec ID/Info : Picture based subtitle format used on DVDs
Duration : 1 h 46 min
Bit rate : 4 253 b/s
Count of elements : 1019
Stream size : 3.25 MiB (0%)
Title : Thai 1080P BIG[OUT]
Language : Thai
Default : No
Forced : No

Text #8
ID : 12
Format : VobSub
Muxing mode : zlib
Codec ID : S_VOBSUB
Codec ID/Info : Picture based subtitle format used on DVDs
Duration : 1 h 46 min
Bit rate : 3 521 b/s
Count of elements : 1019
Stream size : 2.69 MiB (0%)
Title : Thai 1080P Yellow
Language : Thai
Default : No
Forced : No

Text #9
ID : 13
Format : PGS
Muxing mode : zlib
Codec ID : S_HDMV/PGS
Codec ID/Info : Picture based subtitle format used on BDs/HD-DVDs
Duration : 1 h 46 min
Bit rate : 12.0 kb/s
Count of elements : 2040
Stream size : 9.17 MiB (0%)
Title : Thai PGS
Language : Thai
Default : Yes
Forced : No

Text #10
ID : 14
Format : PGS
Muxing mode : zlib
Codec ID : S_HDMV/PGS
Codec ID/Info : Picture based subtitle format used on BDs/HD-DVDs
Duration : 1 h 46 min
Bit rate : 14.5 kb/s
Count of elements : 2040
Stream size : 11.1 MiB (0%)
Title : Thai PGS BIG
Language : Thai
Default : No
Forced : No

Text #11
ID : 15
Format : PGS
Muxing mode : zlib
Codec ID : S_HDMV/PGS
Codec ID/Info : Picture based subtitle format used on BDs/HD-DVDs
Duration : 1 h 46 min
Bit rate : 12.0 kb/s
Count of elements : 2040
Stream size : 9.17 MiB (0%)
Title : Thai PGS OUT
Language : Thai
Default : No
Forced : No

Text #12
ID : 16
Format : PGS
Muxing mode : zlib
Codec ID : S_HDMV/PGS
Codec ID/Info : Picture based subtitle format used on BDs/HD-DVDs
Duration : 1 h 46 min
Bit rate : 12.1 kb/s
Count of elements : 2040
Stream size : 9.23 MiB (0%)
Title : Thai PGS Yellow
Language : Thai
Default : No
Forced : No

DOWNLOAD


PART01 |||| PART02 |||| PART03 |||| PART04 |||| PART05

PART01 |||| PART02 |||| PART03 |||| PART04 |||| PART05

PART01 |||| PART02 |||| PART03 |||| PART04 |||| PART05

PART01 |||| PART02 |||| PART03 |||| PART04 |||| PART05


2 Comments
  1. thanee3111 says

    ช่วงนี้เวปฝากไฟล์ ไวรัสเยอะอะครับ โหลดไม่ได้เลย

    1. Admin
      Admin says

      ติดปัญหายังไงฮ๊ะ พอจะมีภาพไหมฮ๊ะ จะได้ หาทางแก้ไขให้

Leave A Reply

Your email address will not be published.

%d bloggers like this: