[ฝรั่ง] Barbarian (2022) บ้านเช่าสยองขวัญ [1080p] [พากย์อังกฤษ 5.1] [Soundtrack บรรยายไทย + อังกฤษ] [เสียงอังกฤษ + ซับไทย] [USERLOAD]

0

โหลดหนัง Barbarian (2022) บ้านเช่าสยองขวัญ

Barbarian | September 9, 2022 (United States) Summary: A woman staying at an Airbnb discovers that the house she has rented is not what it seems.
Countries: United StatesLanguages: English

เรื่องย่อ Barbarian (2022) บ้านเช่าสยองขวัญ

ในเมืองเพื่อสัมภาษณ์งาน หญิงสาวคนหนึ่งมาถึงที่พักของเธอที่ Airbnb เช่าตอนดึกแต่พบว่าบ้านถูกจองสองครั้งโดยไม่ได้ตั้งใจและมีชายแปลกหน้าอยู่ที่นั่นแล้ว ขัดกับวิจารณญาณที่ดีกว่าของเธอ เธอตัดสินใจที่จะพักค้างคืนต่อไป แต่ในไม่ช้าก็พบว่ามีสิ่งที่ต้องกลัวในบ้านมากกว่าแขกคนอื่น ๆ

Complete name : Barbarian.2022.1080p.WEBRip.AAC.x264.Subthai.One2loadup.com.mkv
Format : Matroska
Format version : Version 4
File size : 3.31 GiB
Duration : 1 h 42 min
Overall bit rate : 4 621 kb/s
Movie name : Barbarian.2022.1080p.WEBRip.AAC.x264.Subthai.One2loadup.com
Encoded date : UTC 2022-10-27 00:25:01
Writing application : mkvmerge v68.0.0 (‘The Curtain’) 32-bit
Writing library : libebml v1.4.2 + libmatroska v1.6.4
Cover : Yes
Attachments : cover.png

Video
ID : 1
Format : AVC
Format/Info : Advanced Video Codec
Format profile : [email protected]
Format settings : CABAC / 4 Ref Frames
Format settings, CABAC : Yes
Format settings, Reference : 4 frames
Codec ID : V_MPEG4/ISO/AVC
Duration : 1 h 42 min
Bit rate : 4 501 kb/s
Width : 1 920 pixels
Height : 1 080 pixels
Display aspect ratio : 1.85:1
Frame rate mode : Constant
Frame rate : 23.976 (24000/1001) FPS
Color space : YUV
Chroma subsampling : 4:2:0
Bit depth : 8 bits
Scan type : Progressive
Bits/(Pixel*Frame) : 0.091
Stream size : 3.20 GiB (97%)
Title : Barbarian.2022.1080p.WEBRip.AAC.x264.Subthai.One2loadup.com
Writing library : x264 core 157
Encoding settings : cabac=1 / ref=3 / deblock=1:0:0 / analyse=0x3:0x113 / me=hex / subme=7 / psy=1 / psy_rd=1.00:0.00 / mixed_ref=1 / me_range=16 / chroma_me=1 / trellis=1 / 8x8dct=1 / cqm=0 / deadzone=21,11 / fast_pskip=1 / chroma_qp_offset=-2 / threads=6 / lookahead_threads=1 / sliced_threads=0 / nr=0 / decimate=1 / interlaced=0 / bluray_compat=0 / constrained_intra=0 / bframes=3 / b_pyramid=2 / b_adapt=1 / b_bias=0 / direct=1 / weightb=1 / open_gop=0 / weightp=2 / keyint=250 / keyint_min=23 / scenecut=40 / intra_refresh=0 / rc_lookahead=40 / rc=abr / mbtree=1 / bitrate=4501 / ratetol=1.0 / qcomp=0.60 / qpmin=0 / qpmax=69 / qpstep=4 / ip_ratio=1.40 / aq=1:1.00
Default : Yes
Forced : No

Audio
ID : 2
Format : AAC LC
Format/Info : Advanced Audio Codec Low Complexity
Codec ID : A_AAC-2
Duration : 1 h 42 min
Bit rate : 128 kb/s
Channel(s) : 6 channels
Channel layout : C L R Ls Rs LFE
Sampling rate : 48.0 kHz
Frame rate : 46.875 FPS (1024 SPF)
Compression mode : Lossy
Delay relative to video : -21 ms
Stream size : 94.1 MiB (3%)
Title : อังกฤษ AAC
Language : English
Default : Yes
Forced : No

Text #1
ID : 3
Format : UTF-8
Codec ID : S_TEXT/UTF8
Codec ID/Info : UTF-8 Plain Text
Duration : 1 h 40 min
Bit rate : 112 b/s
Count of elements : 1197
Stream size : 83.2 KiB (0%)
Title : ไทย SRT
Language : Thai
Default : No
Forced : No

Text #2
ID : 4
Format : PGS
Muxing mode : zlib
Codec ID : S_HDMV/PGS
Codec ID/Info : Picture based subtitle format used on BDs/HD-DVDs
Duration : 1 h 40 min
Bit rate : 25.8 kb/s
Count of elements : 2394
Stream size : 18.6 MiB (1%)
Title : ไทย ส้ม PGS
Language : Thai
Default : No
Forced : No

Text #3
ID : 5
Format : PGS
Muxing mode : zlib
Codec ID : S_HDMV/PGS
Codec ID/Info : Picture based subtitle format used on BDs/HD-DVDs
Duration : 1 h 40 min
Bit rate : 25.8 kb/s
Count of elements : 2394
Stream size : 18.6 MiB (1%)
Title : ไทย PGS
Language : Thai
Default : Yes
Forced : No

DOWNLOAD


PART01 |||| PART02 |||| PART03 |||| PART04

PART01 |||| PART02 |||| PART03 |||| PART04

PART01 |||| PART02 |||| PART03 |||| PART04

PART01 |||| PART02 |||| PART03 |||| PART04

PART01 |||| PART02 |||| PART03 |||| PART04


Leave A Reply

อีเมล์ของคุณจะไม่แสดงให้เห็น Your email address will not be published.

%d bloggers like this: