[ฝรั่ง] Animal Crackers (2020) มหัศจรรย์ละครสัตว์ [1080p] [NETFLIX] [พากย์ไทย 5.1 + เสียงอังกฤษ 5.1] [บรรยายไทย + อังกฤษ] [เสียงไทย + ซับไทย] [PANDAFILE]

0

โหลดหนัง Animal Crackers (2020) มหัศจรรย์ละครสัตว์ 

Animal Crackers (2017) 1h 45min | Animation, Adventure, Comedy | 24 July 2020 (USA) Summary: A family must use a magical box of Animal Crackers to save a run-down circus from being taken over by their evil uncle Horatio P. Huntington.
Countries: China, Spain, South Korea, USALanguages: English

เรื่องย่อ Animal Crackers (2020) มหัศจรรย์ละครสัตว์

โอเว่นกลายร่างเป็นสัตว์เพราะแครกเกอร์รูปสัตว์สุดอั ศจรรย์ที่เขากินเข้าไป! แต่ถ้าอยากจะช่วยคณะละครสัตว์ของครอบครัว เขาต้องหาทางไม่ให้ลุงตัวแสบมาแย่งแครกเกอร์ไปได้

Complete name : Animal.Crackers.2020.1080p.NF.WEB-DL.AC3.One2loadup.com.mkv
Format : Matroska
Format version : Version 4
File size : 4.54 GiB
Duration : 1 h 45 min
Overall bit rate : 6 154 kb/s
Movie name : Animal.Crackers.2020.1080p.NF.WEB-DL.AC3.One2loadup.com
Encoded date : UTC 2020-07-24 13:53:55
Writing application : mkvmerge v48.0.0 (‘Fortress Around Your Heart’) 64-bit
Writing library : libebml v1.4.0 + libmatroska v1.6.0

Video
ID : 1
Format : AVC
Format/Info : Advanced Video Codec
Format profile : [email protected]
Format settings : CABAC / 3 Ref Frames
Format settings, CABAC : Yes
Format settings, ReFrames : 3 frames
Codec ID : V_MPEG4/ISO/AVC
Duration : 1 h 45 min
Bit rate : 4 810 kb/s
Width : 1 920 pixels
Height : 1 036 pixels
Display aspect ratio : 1.85:1
Frame rate mode : Constant
Frame rate : 24.000 FPS
Color space : YUV
Chroma subsampling : 4:2:0
Bit depth : 8 bits
Scan type : Progressive
Bits/(Pixel*Frame) : 0.101
Stream size : 3.55 GiB (78%)
Title : Animal.Crackers.2020.1080p.NF.WEB-DL.AC3.One2loadup.com
Language : English
Default : Yes
Forced : No

Audio #1
ID : 2
Format : E-AC-3
Format/Info : Enhanced AC-3
Commercial name : Dolby Digital Plus
Codec ID : A_EAC3
Duration : 1 h 45 min
Bit rate mode : Constant
Bit rate : 640 kb/s
Channel(s) : 6 channels
Channel layout : L R C LFE Ls Rs
Sampling rate : 48.0 kHz
Frame rate : 31.250 FPS (1536 SPF)
Compression mode : Lossy
Stream size : 484 MiB (10%)
Title : AC-3 English
Language : English
Service kind : Complete Main
Default : Yes
Forced : No

Audio #2
ID : 3
Format : E-AC-3
Format/Info : Enhanced AC-3
Commercial name : Dolby Digital Plus
Codec ID : A_EAC3
Duration : 1 h 45 min
Bit rate mode : Constant
Bit rate : 640 kb/s
Channel(s) : 6 channels
Channel layout : L R C LFE Ls Rs
Sampling rate : 48.0 kHz
Frame rate : 31.250 FPS (1536 SPF)
Compression mode : Lossy
Stream size : 484 MiB (10%)
Title : AC-3 Thai
Language : Thai
Service kind : Complete Main
Default : No
Forced : No

Text #1
ID : 4
Format : VobSub
Muxing mode : zlib
Codec ID : S_VOBSUB
Codec ID/Info : Picture based subtitle format used on DVDs
Duration : 1 h 43 min
Bit rate : 12.8 kb/s
Count of elements : 1568
Stream size : 9.46 MiB (0%)
Title : Sub Thai 1080p
Language : Thai
Default : No
Forced : No

Text #2
ID : 5
Format : UTF-8
Codec ID : S_TEXT/UTF8
Codec ID/Info : UTF-8 Plain Text
Duration : 1 h 43 min
Bit rate : 146 b/s
Count of elements : 1568
Stream size : 111 KiB (0%)
Title : Sub Thai SRT
Language : Thai
Default : No
Forced : No

Text #3
ID : 6
Format : PGS
Muxing mode : zlib
Codec ID : S_HDMV/PGS
Codec ID/Info : Picture based subtitle format used on BDs/HD-DVDs
Duration : 1 h 43 min
Bit rate : 42.1 kb/s
Count of elements : 3136
Stream size : 31.1 MiB (1%)
Title : Sub Thai PGS
Language : Thai
Default : Yes
Forced : No

Text #4
ID : 7
Format : VobSub
Muxing mode : zlib
Codec ID : S_VOBSUB
Codec ID/Info : Picture based subtitle format used on DVDs
Duration : 1 h 37 min
Bit rate : 16.7 kb/s
Count of elements : 2002
Stream size : 11.6 MiB (0%)
Title : Sub English 1080p
Language : English
Default : No
Forced : No

Text #5
ID : 8
Format : UTF-8
Codec ID : S_TEXT/UTF8
Codec ID/Info : UTF-8 Plain Text
Duration : 1 h 37 min
Bit rate : 87 b/s
Count of elements : 2002
Stream size : 62.1 KiB (0%)
Title : Sub English SRT
Language : English
Default : No
Forced : No

Text #6
ID : 9
Format : PGS
Muxing mode : zlib
Codec ID : S_HDMV/PGS
Codec ID/Info : Picture based subtitle format used on BDs/HD-DVDs
Duration : 1 h 37 min
Bit rate : 55.2 kb/s
Count of elements : 4004
Stream size : 38.5 MiB (1%)
Title : Sub English PGS
Language : English
Default : No
Forced : No

DOWNLOAD


PART01 |||| PART02 |||| PART03 |||| PART04 |||| PART05

PART01 |||| PART02 |||| PART03 |||| PART04 |||| PART05

PART01 |||| PART02 |||| PART03 |||| PART04 |||| PART05

PART01 |||| PART02 |||| PART03 |||| PART04 |||| PART05

PART01 |||| PART02 |||| PART03 |||| PART04 |||| PART05



Disable Comments
%d bloggers like this: