[ฝรั่ง] 6 Underground (2019) 6 ลับ ดับ โหด [1080p] [พากย์ไทย 5.1 + เสียงอังกฤษ 5.1] [บรรยายไทย + อังกฤษ] [เสียงไทย + ซับไทย] [PANDAFILE]

10

โหลดหนัง 6 Underground (2019) 6 ลับ ดับ โหด

6 Underground | December 13, 2019 (United States) Summary: Six individuals from all around the globe, each the very best at what they do, have been chosen not only for their skill, but for a unique desire to delete their pasts to change the future.
Countries: United StatesLanguages: English, Turkmen, Cantonese, Italian, Spanish, Ukrainian, French

เรื่องย่อ 6 Underground (2019) 6 ลับ ดับ โหด

6 Underground คือผลงานกำกับเรื่องล่าสุดของ ไมเคิล เบย์ เจ้าของฉายาระเบิดภูเขา เผากระท่อมจาก Armageddon (1998), Pearl Harbor (2001) และแฟรนไชส์ Transformers ที่ร่วมงานกับ Netflix เป็นครั้งแรก โดยจะพูดถึงแก๊งเศรษฐี 6 คน ที่ ‘แกล้งตาย’ ลบการมีอยู่ของตัวเอง แล้วตั้งเป็นทีมปราบแก๊งอาชญากรใต้ดิน พร้อมกับความเชื่อที่ว่า ถ้า ‘คนเป็น’ จัดการไม่ได้ ก็ต้องให้ ‘คนตาย’ จัดการ ทุกคนจะทิ้งชื่อของตัวเอง แล้วใช้รหัสลับตามเลข 1-6 โดยได้นักแสดงอย่าง ไรอัน เรย์โนลด์ส มารับบท วัน หัวหน้าทีม พร้อมกับเพื่อนร่วมทีมอย่าง เมลานี ลอว์เรนซ์, มานูเอล การ์เซีย รัลโฟ, อาเดรีย อาร์โจนา, โครีย์ ฮอว์คินส์ และ เบน ฮาร์ดี้ ที่ใช้ชื่อตามลำดับตัวเลขต่อมาถ้าดูจากตัวอย่างแรกที่ปล่อยออกมา ก็พอจะบอกได้ว่าเรื่องฉากแอ็กชันนั้นหายห่วง เชื่อมือไมเคิล เบย์ได้อยู่แล้ว ในครั้งนี้เรายังจะได้เห็นฉากระเบิด การสาดกระสุนแบบไม่ยั้ง รถลอยคว้างกลางอากาศ และมีจุดที่น่าสนใจ คือเทคนิค ลูกเล่นของอาวุธบางอย่าง เช่น ระเบิดแม่เหล็กแรงสูง ที่กลไกของแม่เหล็กสามารถเอามาดีไซน์ฉากแอ็กชันที่น่ าสนใจได้เป็นอย่างดี ซึ่งในหนังคงจะมีไม้เด็ดกว่านี้ซ่อนอยู่อีกเยอะส่วนเรื่อง ‘บท’ ที่หลายคนมักจะรู้สึกว่าเป็นจุดอ่อนของ ไมเคิล เบย์ (ถ้าดูจากแฟรนไชส์ Tranformers หลายๆ ภาค) ก็ได้ พอล เวอร์นิก และ เรตต์ รีส คู่หูนักเขียนบทที่เด็ดขาดมากๆ ในการสร้างเรื่อง บทสนทนา ตลกร้าย จิกกัดทุกอย่างรอบตัวได้อย่างเจ็บแสบ อย่างที่เห็นมาแล้วจาก Zombieland และ Deadpool ทั้ง 2 ภาค มากลบจุดอ่อน เสริมจุดแข็งในภารกิจจารชนคนรวยในครั้งนี้ 6 Underground ได้ทุนสร้าง 150 ล้านดอลลาร์สหรัฐ นับว่าเป็นโปรเจกต์หนังที่ได้ทุนสร้างมากเป็นอันดับ 2 ของ Netflix เป็นรองแค่ The Irishman ของ มาร์ติน สกอร์เซซี ที่ได้ทุนสร้าง 159 ล้านดอลลาร์สหรัฐ เพียงเรื่องเดียวเท่านั้น

Complete name : 6.Underground.2019.1080p.NF.WEB-DL.AC3.x264.One2loadup.com.mkv
Format : Matroska
Format version : Version 4
File size : 3.67 GiB
Duration : 2 h 8 min
Overall bit rate : 4 076 kb/s
Movie name : 6.Underground.2019.1080p.NF.WEB-DL.AC3.x264.One2loadup.com
Encoded date : UTC 2019-12-13 12:37:13
Writing application : mkvmerge v41.0.0 (‘Smarra’) 64-bit
Writing library : libebml v1.3.9 + libmatroska v1.5.2

Video
ID : 1
Format : AVC
Format/Info : Advanced Video Codec
Format profile : [email protected]
Format settings : CABAC / 4 Ref Frames
Format settings, CABAC : Yes
Format settings, ReFrames : 4 frames
Codec ID : V_MPEG4/ISO/AVC
Duration : 2 h 8 min
Bit rate : 2 500 kb/s
Width : 1 920 pixels
Height : 800 pixels
Display aspect ratio : 2.40:1
Frame rate mode : Constant
Frame rate : 23.976 (23976/1000) FPS
Color space : YUV
Chroma subsampling : 4:2:0
Bit depth : 8 bits
Scan type : Progressive
Bits/(Pixel*Frame) : 0.068
Stream size : 2.25 GiB (61%)
Title : 6.Underground.2019.1080p.NF.WEB-DL.AC3.x264.One2loadup.com
Writing library : x264 core 152 r2851M ba24899
Encoding settings : cabac=1 / ref=4 / deblock=1:-1:-1 / analyse=0x3:0x113 / me=umh / subme=9 / psy=1 / psy_rd=1.00:0.15 / mixed_ref=1 / me_range=24 / chroma_me=1 / trellis=2 / 8x8dct=1 / cqm=0 / deadzone=21,11 / fast_pskip=1 / chroma_qp_offset=-3 / threads=32 / lookahead_threads=4 / sliced_threads=0 / nr=0 / decimate=1 / interlaced=0 / bluray_compat=0 / constrained_intra=0 / bframes=3 / b_pyramid=2 / b_adapt=2 / b_bias=0 / direct=3 / weightb=1 / open_gop=0 / weightp=2 / keyint=250 / keyint_min=25 / scenecut=40 / intra_refresh=0 / rc_lookahead=50 / rc=2pass / mbtree=1 / bitrate=2500 / ratetol=1.0 / qcomp=0.60 / qpmin=0 / qpmax=69 / qpstep=4 / cplxblur=20.0 / qblur=0.5 / vbv_maxrate=31250 / vbv_bufsize=31250 / nal_hrd=none / filler=0 / ip_ratio=1.40 / aq=3:1.00
Language : English
Default : Yes
Forced : No

Audio #1
ID : 2
Format : E-AC-3
Format/Info : Enhanced AC-3
Commercial name : Dolby Digital Plus
Codec ID : A_EAC3
Duration : 2 h 8 min
Bit rate mode : Constant
Bit rate : 640 kb/s
Channel(s) : 6 channels
Channel layout : L R C LFE Ls Rs
Sampling rate : 48.0 kHz
Frame rate : 31.250 FPS (1536 SPF)
Compression mode : Lossy
Stream size : 590 MiB (16%)
Language : Thai
Service kind : Complete Main
Default : Yes
Forced : No

Audio #2
ID : 3
Format : E-AC-3 JOC
Format/Info : Enhanced AC-3 with Joint Object Coding
Commercial name : Dolby Digital Plus with Dolby Atmos
Codec ID : A_EAC3
Duration : 2 h 8 min
Bit rate mode : Constant
Bit rate : 768 kb/s
Channel(s) : 6 channels
Channel layout : L R C LFE Ls Rs
Sampling rate : 48.0 kHz
Frame rate : 31.250 FPS (1536 SPF)
Compression mode : Lossy
Stream size : 708 MiB (19%)
Title : English [Original]
Language : English
Service kind : Complete Main
Default : No
Forced : No
Complexity index : 16
Number of dynamic objects : 15
Bed channel count : 1 channel
Bed channel configuration : LFE

Text #1
ID : 4
Format : UTF-8
Codec ID : S_TEXT/UTF8
Codec ID/Info : UTF-8 Plain Text
Duration : 2 h 5 min
Bit rate : 146 b/s
Count of elements : 1754
Stream size : 135 KiB (0%)
Title : Thai SRT From Netflix
Language : Thai
Default : Yes
Forced : No

Text #2
ID : 5
Format : VobSub
Muxing mode : zlib
Codec ID : S_VOBSUB
Codec ID/Info : Picture based subtitle format used on DVDs
Duration : 2 h 5 min
Bit rate : 13.9 kb/s
Count of elements : 1754
Stream size : 12.5 MiB (0%)
Title : Thai 1080p
Language : Thai
Default : No
Forced : No

Text #3
ID : 6
Format : VobSub
Muxing mode : zlib
Codec ID : S_VOBSUB
Codec ID/Info : Picture based subtitle format used on DVDs
Duration : 2 h 5 min
Bit rate : 13.9 kb/s
Count of elements : 1754
Stream size : 12.5 MiB (0%)
Title : Thai 1080p Yellow
Language : Thai
Default : No
Forced : No

Text #4
ID : 7
Format : VobSub
Muxing mode : zlib
Codec ID : S_VOBSUB
Codec ID/Info : Picture based subtitle format used on DVDs
Duration : 2 h 5 min
Bit rate : 16.5 kb/s
Count of elements : 1754
Stream size : 14.8 MiB (0%)
Title : Thai 1080p [BIG]
Language : Thai
Default : No
Forced : No

Text #5
ID : 8
Format : PGS
Muxing mode : zlib
Codec ID : S_HDMV/PGS
Codec ID/Info : Picture based subtitle format used on BDs/HD-DVDs
Duration : 2 h 5 min
Bit rate : 60.0 kb/s
Count of elements : 3508
Stream size : 53.9 MiB (1%)
Title : Thai PGS
Language : Thai
Default : No
Forced : No

Text #6
ID : 9
Format : PGS
Muxing mode : zlib
Codec ID : S_HDMV/PGS
Codec ID/Info : Picture based subtitle format used on BDs/HD-DVDs
Duration : 2 h 5 min
Bit rate : 60.0 kb/s
Count of elements : 3508
Stream size : 53.9 MiB (1%)
Title : Thai PGS Yellow
Language : Thai
Default : No
Forced : No

Text #7
ID : 10
Format : PGS
Muxing mode : zlib
Codec ID : S_HDMV/PGS
Codec ID/Info : Picture based subtitle format used on BDs/HD-DVDs
Duration : 2 h 5 min
Bit rate : 72.9 kb/s
Count of elements : 3508
Stream size : 65.4 MiB (2%)
Title : Thai PGS [BIG]
Language : Thai
Default : No
Forced : No

Text #8
ID : 11
Format : PGS
Muxing mode : zlib
Codec ID : S_HDMV/PGS
Codec ID/Info : Picture based subtitle format used on BDs/HD-DVDs
Duration : 2 h 7 min
Bit rate : 53.5 kb/s
Count of elements : 3512
Stream size : 49.0 MiB (1%)
Title : Thai PGS | Original |
Language : Thai
Default : No
Forced : No

Text #9
ID : 12
Format : PGS
Muxing mode : zlib
Codec ID : S_HDMV/PGS
Codec ID/Info : Picture based subtitle format used on BDs/HD-DVDs
Duration : 2 h 6 min
Bit rate : 71.4 kb/s
Count of elements : 4384
Stream size : 64.8 MiB (2%)
Title : English PGS
Language : English
Default : No
Forced : No

DOWNLOAD


PART01 |||| PART02 |||| PART03 |||| PART04

PART01 |||| PART02 |||| PART03 |||| PART04

PART01 |||| PART02 |||| PART03 |||| PART04

PART01 |||| PART02 |||| PART03 |||| PART04

PART01 |||| PART02 |||| PART03 |||| PART04


10 Comments
  1. Nattawat Ant
    Nattawat Ant says

    โหลดไปแล้ว ดูไม่ได้ครับไฟล์เสีย เสียงขาดหายๆภาพเหมือนกอหนัง

    1. Admin
      Admin says

      ช่วงไหนที่มีปัญหาฮ๊ะ จะได้เช็ค

  2. Godza says

    ใช่ครับ ไม่มีเสียงทั้งเรื่องเลย

    1. Admin
      Admin says

      เราทดสอบแล้วก็มีเสียงปกตินะฮ๊ะ

  3. Godza says

    ใช้โปรแกรม the km เปิดอะครับ เสี้ยวไม่มีจริงๆ เลยลองโปนแกรมอื่นดูได้เฉย หรือเป็นที่โปรแกรมครับ

    1. Admin
      Admin says

      อือ เราไม่ทราบเหมือกันฮ๊ะ น่าจะเป็นที่หนังเข้ารหัสเสียงที่โปรแกรมอ่านไม่ได้น่ะฮ๊ะ

  4. Godza says

    Ok ขอบคุณมากๆครับ เดี๋ยวผมจะลองหาโปรแกรมอื่นมาลองครับ

    1. Admin
      Admin says

      แนะนำโปรแกรม VLC ในการดูฮ๊ะ น่าจะง่ายสุดละ

  5. Oat says

    cornfile เสียครับ

    1. Admin
      Admin says

      แก้ไขเรียบร้อยฮ๊ะ

Leave A Reply

อีเมล์ของคุณจะไม่แสดงให้เห็น Your email address will not be published.

%d bloggers like this: