[ฝรั่ง] 32 Malasana Street (2020) 32 มาลาซานญ่า ย่านผีอยู่ [1080p] [พากย์ไทย 2.0] [ไม่มีบรรยาย] [เสียงไทยมาสเตอร์] [PANDAFILE]

0

โหลดหนัง 32 Malasana Street (2020) 32 มาลาซานญ่า ย่านผีอยู่

Malasaña 32 (2020) 1h 44min | Horror | 19 November 2020 (Germany) Summary: A family moving to a new house to live the dream of the big city. A house where dreams turn in nightmares.
Countries: Spain, FranceLanguages: Spanish

เรื่องย่อ 32 Malasana Street (2020) 32 มาลาซานญ่า ย่านผีอยู่

จะเกิดอะไรขึ้นถ้าหากสิ่งที่น่ากลัวที่สุดเท่าที่คุณ จินตนาการออกแฝงตัวอยู่ใต้ชายคาบ้านคุณเอง สร้างจากเหตุการณ์จริงที่เคยเกิดขึ้น Malasana 32 เป็นภาพยนตร์สยองขวัญเกี่ยวกับสิ่งลี้ลับเหนือธรรมชา ติ เป็นอีกหนึ่งผลงานที่พิสูจน์ว่านักทำหนังจากสเปนเป็น ตัวจริงเรื่องความหลอนเรื่องราวเกิดขึ้นในปี 1976 เมื่อครอบครัวหนึ่งอัลเมโด้ย้าย จากบ้านหลังเก่าย่านชนบทเข้ามายังบ้านใหม่ในย่านมาลา ซาน่า กรุงมาดริด พวกเขาทุกคนตื่นเต้นที่ได้เข้ามาใช้ชีวิตในเมืองหลวง กลางช่วงเปลี่ยนผ่านสำคัญของประเทศสเปน แต่มีสิ่งที่พวกเขายังไม่รู้บ้านหลังนี้มีบางอย่างแถมมาด้วยซึ่งมันไม่ต้อนรับผู้มาเยือนหน้าไหนทั้งนั้น ซึ่งมันพร้อมเปลี่ยนการเริ่มต้นครั้งใหม่เป็นฝันร้าย ที่ไม่มีทางลบเลือน… หมวดหมู่ : สยองขวัญ ผู้กำกับ : อัลแบรต์ ปินโต นักแสดง : เบโกญา วาร์กัส, อีบัน มาร์กอส, บี เซกูรา, เซร์คีโอ แคสเทลา…

Complete name : 32.Malasana Street.2020.1080p.WEB-DL.AC3.x264.THM.One2loadup.com.mkv
Format : Matroska
Format version : Version 2
File size : 4.92 GiB
Duration : 1 h 44 min
Overall bit rate mode : Constant
Overall bit rate : 6 741 kb/s
Movie name : 32.Malasana Street.2020.1080p.WEB-DL.AC3.x264.THM.One2loadup.com
Encoded date : UTC 2020-09-22 03:51:38
Writing application : DVDFab 11.0.3.1
Writing library : libebml v1.3.4 + libmatroska v1.4.5

Video
ID : 1
Format : AVC
Format/Info : Advanced Video Codec
Format profile : [email protected]
Format settings : CABAC / 4 Ref Frames
Format settings, CABAC : Yes
Format settings, ReFrames : 4 frames
Format settings, GOP : M=3, N=24
Codec ID : V_MPEG4/ISO/AVC
Duration : 1 h 44 min
Bit rate mode : Constant
Bit rate : 6 712 kb/s
Width : 2 592 pixels
Height : 1 080 pixels
Display aspect ratio : 2.40:1
Frame rate mode : Constant
Frame rate : 23.976 (24000/1001) FPS
Color space : YUV
Chroma subsampling : 4:2:0
Bit depth : 8 bits
Scan type : Progressive
Bits/(Pixel*Frame) : 0.100
Stream size : 4.78 GiB (97%)
Title : 32.Malasana Street.2020.1080p.WEB-DL.AC3.x264.THM.One2loadup.com
Default : Yes
Forced : No
Color range : Limited
Color primaries : BT.709
Transfer characteristics : BT.709
Matrix coefficients : BT.709

Audio
ID : 2
Format : AC-3
Format/Info : Audio Coding 3
Commercial name : Dolby Digital
Codec ID : A_AC3
Duration : 1 h 44 min
Bit rate mode : Constant
Bit rate : 192 kb/s
Channel(s) : 2 channels
Channel layout : L R
Sampling rate : 48.0 kHz
Frame rate : 31.250 FPS (1536 SPF)
Bit depth : 16 bits
Compression mode : Lossy
Stream size : 143 MiB (3%)
Service kind : Complete Main
Default : Yes
Forced : No

DOWNLOAD


PART01 |||| PART02 |||| PART03 |||| PART04 |||| PART05 |||| PART06

PART01 |||| PART02 |||| PART03 |||| PART04 |||| PART05 |||| PART06

PART01 |||| PART02 |||| PART03 |||| PART04 |||| PART05 |||| PART06

PART01 |||| PART02 |||| PART03 |||| PART04 |||| PART05 |||| PART06

PART01 |||| PART02 |||| PART03 |||| PART04 |||| PART05 |||| PART06



แจ้งหนังเสีย หรือโหลดไม่ได้ ทั้งลิ้งฟรีและ vip สามารถกดที่รูปด้านบนนี้ได้เลย

: Disable Comments
%d bloggers like this: