[ญี่ปุ่น] Laplace’s Witch (2018) ลาปลาซ วิปลาส [1080p] [พากย์ไทย 2.0 + เสียงญี่ปุ่น 2.0] [บรรยายอังกฤษ] [เสียงไทย + ซับอังกฤษ] [PANDAFILE]

0

โหลดหนัง Laplace’s Witch (2018) ลาปลาซ วิปลาส

Laplace's Witch | May 4, 2018 (Japan) Summary:
Countries: JapanLanguages: Japanese

เรื่องย่อ Laplace’s Witch (2018) ลาปลาซ วิปลาส

เมื่อคนสองคนเสียชีวิตเพราะการสูดก๊าซไฮโดรเจนซัลไฟด ์ที่เกิดขึ้นกันคนละสถานที่ ตำรวจจึงต้องพึ่งความเห็นของนักวิเคราะห์สิ่งแวดล้อม ชูสุเกะ อาโอเอะ (โช ซากุราอิ) เพื่อพิสูจน์ว่าทั้งสองคดีคืออุบัติเหตุหรือการฆาตกร รม ในระหว่างการสืบสวน ชูสุเกะได้พบกับสาวน้อยปริศนา มาโดกะ อุฮาระ (ซึสุ ฮิโรเสะ) เธอสามารถทำนายสถานที่เกิดปรากฏการณ์ได้อย่างแม่นยำ จุดเริ่มต้นของความร่วมมือระหว่างวิทยาศาสตร์และความ ลึกลับจึงเริ่มขึ้น

Complete name : Laplace’s.Witch.2018.1080p.BluRay.AC3.x264.One2loadup.com.mkv
Format : Matroska
Format version : Version 4
File size : 3.38 GiB
Duration : 1 h 55 min
Overall bit rate : 4 199 kb/s
Movie name : Laplace’s.Witch.2018.1080p.BluRay.AC3.x264.One2loadup.com
Encoded date : UTC 2020-01-25 22:56:09
Writing application : mkvmerge v42.0.0 (‘Overtime’) 64-bit
Writing library : libebml v1.3.10 + libmatroska v1.5.2
Cover : Yes
Attachments : cover.jpg

Video
ID : 1
Format : AVC
Format/Info : Advanced Video Codec
Format profile : Main@L4
Format settings : CABAC / 1 Ref Frames
Format settings, CABAC : Yes
Format settings, ReFrames : 1 frame
Format settings, GOP : M=1, N=25
Codec ID : V_MPEG4/ISO/AVC
Duration : 1 h 55 min
Bit rate mode : Constant
Bit rate : 3 231 kb/s
Width : 1 920 pixels
Height : 800 pixels
Display aspect ratio : 2.40:1
Frame rate mode : Constant
Frame rate : 29.970 (30000/1001) FPS
Color space : YUV
Chroma subsampling : 4:2:0
Bit depth : 8 bits
Scan type : Progressive
Bits/(Pixel*Frame) : 0.070
Stream size : 2.60 GiB (77%)
Title : Laplace’s.Witch.2018.1080p.BluRay.AC3.x264.One2loadup.com
Language : Japanese
Default : Yes
Forced : No

Audio #1
ID : 2
Format : AC-3
Format/Info : Audio Coding 3
Commercial name : Dolby Digital
Codec ID : A_AC3
Duration : 1 h 55 min
Bit rate mode : Constant
Bit rate : 448 kb/s
Channel(s) : 2 channels
Channel layout : L R
Sampling rate : 44.1 kHz
Frame rate : 28.711 FPS (1536 SPF)
Bit depth : 16 bits
Compression mode : Lossy
Stream size : 370 MiB (11%)
Title : 2.0 AC3 TH
Language : Thai
Service kind : Complete Main
Default : Yes
Forced : No

Audio #2
ID : 3
Format : AC-3
Format/Info : Audio Coding 3
Commercial name : Dolby Digital
Codec ID : A_AC3
Duration : 1 h 55 min
Bit rate mode : Constant
Bit rate : 512 kb/s
Channel(s) : 2 channels
Channel layout : L R
Sampling rate : 44.1 kHz
Frame rate : 28.711 FPS (1536 SPF)
Bit depth : 16 bits
Compression mode : Lossy
Stream size : 422 MiB (12%)
Title : 2.0 AC3 Jpn
Language : Japanese
Service kind : Complete Main
Default : No
Forced : No

Text
ID : 4
Format : PGS
Muxing mode : zlib
Codec ID : S_HDMV/PGS
Codec ID/Info : Picture based subtitle format used on BDs/HD-DVDs
Duration : 1 h 51 min
Bit rate : 16.7 kb/s
Count of elements : 2350
Stream size : 13.3 MiB (0%)
Title : EN PGS white
Language : English
Default : Yes
Forced : No

DOWNLOAD


PART01 |||| PART02 |||| PART03 |||| PART04

PART01 |||| PART02 |||| PART03 |||| PART04

PART01 |||| PART02 |||| PART03 |||| PART04

PART01 |||| PART02 |||| PART03 |||| PART04

PART01 |||| PART02 |||| PART03 |||| PART04


Leave A Reply

อีเมล์ของคุณจะไม่แสดงให้เห็น Your email address will not be published.

%d bloggers like this: