เว็บโหลดหนัง HD MINI-HD SUPER-HQ Full-HD 1080p One2up VIP Master Zoom ซูม หนังใหม่ ออนไลน์ มาสเตอร์ ไทย จีน ฝรั่ง การ์ตูน

[Zoom] Ant-Man and the Wasp (2018) แอนท์-แมน และ เดอะ วอสพ์ [720p] [หนังซูม] [พากย์ไทยโรง 2.0 + เสียงอังกฤษ 2.0] [เสียงไทยโรง]

0

โหลดหนัง  Ant-Man and the Wasp (2018) แอนท์-แมน และ เดอะ วอสพ์

เรื่องย่อ Ant-Man and the Wasp (2018) แอนท์-แมน และ เดอะ วอสพ์

ภาพยนตร์ลำดับที่ 20 ของจักรวาลมาร์เวล MCU ผลงานของผกก. เพย์ตัน รีดหลังจากที่ภาคแรก ได้สร้างความฮาก๊ากฉบับย่อไซซ์แบบที่ไม่มีใครเหมือน ในที่สุดมนุษย์มดมหากาฬก็กลับมากับการผจญภัยครั้งใหม่ แต่ครั้งนี้ เขามาพร้อมกับคู่หูคู่ลุยอย่างแม่สาวต่อสาวพราวเสน่ห์ ใน ANT-MAN AND THE WASP !

Ant-Man 2 ควันหลงจาก กัปตัน อเมริกา: ซีวิล วอร์, สก็อตต์ แลงก์ ต้องรับมือกับผลลัพธ์ในสิ่งที่เขาเลือกทั้งในฐานะซูเปอร์ฮีโร่ และความเป็นพ่อ ในขณะเดียวกันนั้นเขาก็ต้องพยายามสร้างสมดุลของชีวิต ที่ครอบครัวและหน้าที่ความรับผิดชอบในฐานะ แอนท์-แมน เขาต้องร่วมมือกับ โฮป แวน ไดน์ และดร. แฮงค์ พิม ในภารกิจใหม่สุดเร่งด่วน สก็อตต์ต้องกลับมาสวมชุดใหม่อีกครั้ง และเรียนรู้ที่จะต่อสู้เป็นทีมไปพร้อมกับเดอะ วอส์พ เพื่อหาคำตอบในอดีตที่เป็นปริศนาของพวกเขา

Complete name : Ant-Man.and.the.Wasp.2018.720p.New.HDCAM.x264.AC3.THR2.0.One2loadup.com.mkv
Format : Matroska
Format version : Version 4 / Version 2
File size : 2.99 GiB
Duration : 1 h 49 min
Overall bit rate mode : Variable
Overall bit rate : 3 889 kb/s
Movie name : Ant-Man.and.the.Wasp.2018.720p.New.HDCAM.x264.AC3.THR2.0.One2loadup.com
Encoded date : UTC 2018-08-24 19:58:33
Writing application : mkvmerge v9.9.0 (‘Pick Up’) 64bit
Writing library : libebml v1.3.4 + libmatroska v1.4.5

Video
ID : 1
Format : AVC
Format/Info : Advanced Video Codec
Format profile : [email protected]
Format settings : CABAC / 6 Ref Frames
Format settings, CABAC : Yes
Format settings, ReFrames : 6 frames
Codec ID : V_MPEG4/ISO/AVC
Duration : 1 h 49 min
Bit rate mode : Variable
Bit rate : 3 502 kb/s
Maximum bit rate : 62.5 Mb/s
Width : 1 168 pixels
Height : 508 pixels
Display aspect ratio : 2.25:1
Frame rate mode : Constant
Frame rate : 30.000 FPS
Color space : YUV
Chroma subsampling : 4:2:0
Bit depth : 8 bits
Scan type : Progressive
Bits/(Pixel*Frame) : 0.197
Stream size : 2.69 GiB (90%)
Title : Ant-Man.and.the.Wasp.2018.720p.New.HDCAM.x264.AC3.THR2.0.One2loadup.com
Language : English
Default : Yes
Forced : Yes
Color range : Full
Color primaries : BT.709
Transfer characteristics : BT.709
Matrix coefficients : BT.709

Audio #1
ID : 2
Format : AC-3
Format/Info : Audio Coding 3
Codec ID : A_AC3
Duration : 1 h 49 min
Bit rate mode : Constant
Bit rate : 192 kb/s
Channel(s) : 2 channels
Channel positions : Front: L R
Sampling rate : 48.0 kHz
Frame rate : 31.250 FPS (1536 SPF)
Bit depth : 16 bits
Compression mode : Lossy
Stream size : 151 MiB (5%)
Title : THR 2.0
Language : Thai
Service kind : Complete Main
Default : Yes
Forced : Yes

Audio #2
ID : 3
Format : MPEG Audio
Format version : Version 1
Format profile : Layer 3
Codec ID : A_MPEG/L3
Codec ID/Hint : MP3
Duration : 1 h 49 min
Bit rate mode : Constant
Bit rate : 192 kb/s
Channel(s) : 2 channels
Sampling rate : 44.1 kHz
Frame rate : 38.281 FPS (1152 SPF)
Compression mode : Lossy
Delay relative to video : 10 ms
Stream size : 151 MiB (5%)
Title : English 2.0 @ 192 kb/s
Writing library : LAME3.99.5
Language : English
Default : No
Forced : No

DOWNLOAD


PART01 |||| PART02 |||| PART03

PART01 |||| PART02 |||| PART03

PART01 |||| PART02 |||| PART03

PART01 |||| PART02 |||| PART03


Leave A Reply

Your email address will not be published.

%d bloggers like this: