เว็บโหลดหนัง HD MINI-HD SUPER-HQ Full-HD 1080p One2up VIP Mekafile Master Zoom ซูม หนังใหม่ ออนไลน์ มาสเตอร์ ไทย จีน ฝรั่ง การ์ตูน

[ฝรั่ง] Thor: Ragnarok (2017) ธอร์: ศึกอวสานเทพเจ้า [1080p] [ภาพมาสเตอร์] [พากย์ไทยโรง + อังกฤษ 5.1] [WEB-DL.H.264] [เสียงไทยโรง + บรรยายอังกฤษ] [ซับอังกฤษ] [ONE2UP]

4

โหลดหนัง  Thor: Ragnarok (2017) ศึกอวสานเทพเจ้า

เรื่องย่อ Thor: Ragnarok (2017) ศึกอวสานเทพเจ้า

เป็นภาพยนตร์ภาคที่ 3 ของ Thor เทพเจ้าสายฟ้า ในภาคนี้ธอร์ (รับบทโดย คริส เฮมส์เวิร์ธ) ถูกเนรเทศไปยังสุดขอบจักรวาล กลายเป็นนักโทษโดยปราศจากค้อนคู่ใจ เขาจะต้องหาทางกลับไปยังแอสการ์ดเพื่อหยุดยั้งมหาสงค รามที่จะทำลายล้างดินแดนแห่งเทพ และจบสิ้นอารยธรรมแห่งแอสการ์ด ภายใต้เงื้อมมือของวายร้ายคนใหม่ที่ทรงพลังและโหดเหี้ยมที่สุด เฮล่า (รับบทโดย เคท แบลนเชตต์) แต่ก่อนอื่นเขาจะต้องเอาชีวิตรอดจากการต่อสู้แบบฉบับ กลาดิเอเตอร์ให้ได้เสียก่อน ซึ่งคู่ต่อสู้ในคราวนี้เป็นถึงหนึ่งในทีมอเวนเจอร์ที ่เขาคุ้นเคย…เดอะ ฮัลค์!

Complete name : Thor.Ragnarok.2017.1080p.WEB-DL.DD5.1.H264.One2loadup.com.mkv
Format : Matroska
Format version : Version 4 / Version 2
File size : 6.45 GiB
Duration : 2 h 10 min
Overall bit rate : 7 058 kb/s
Movie name : Thor.Ragnarok.2017.1080p.WEB-DL.DD5.1.H264.One2loadup.com
Encoded date : UTC 2018-01-21 14:44:41
Writing application : mkvmerge v20.0.0 (‘I Am The Sun’) 64-bit
Writing library : libebml v1.3.5 + libmatroska v1.4.8
Cover : Yes
Attachments : small_cover.jpg / small_cover_land.jpg / cover.jpg / cover_land.jpg

Video
ID : 1
Format : AVC
Format/Info : Advanced Video Codec
Format profile : [email protected]
Format settings, CABAC : Yes
Format settings, RefFrames : 4 frames
Format settings, GOP : M=1, N=3
Codec ID : V_MPEG4/ISO/AVC
Duration : 2 h 10 min
Bit rate : 5 261 kb/s
Width : 1 920 pixels
Height : 800 pixels
Display aspect ratio : 2.40:1
Frame rate mode : Constant
Frame rate : 23.976 (24000/1001) FPS
Color space : YUV
Chroma subsampling : 4:2:0
Bit depth : 8 bits
Scan type : Progressive
Bits/(Pixel*Frame) : 0.143
Stream size : 4.80 GiB (75%)
Title : Thor.Ragnarok.2017.1080p.WEB-DL.DD5.1.H264.One2loadup.com
Default : Yes
Forced : No
Color range : Limited
Color primaries : BT.709
Transfer characteristics : BT.709
Matrix coefficients : BT.709

Audio #1
ID : 2
Format : PCM
Codec ID : A_PCM/INT/LIT
Duration : 2 h 10 min
Bit rate mode : Constant
Bit rate : 1 411.2 kb/s
Channel(s) : 2 channels
Sampling rate : 44.1 kHz
Frame rate : 5.000 FPS (8820 SPF)
Bit depth : 16 bits
Stream size : 1.29 GiB (20%)
Title : Thai โรง โมใหม่ Spark-751
Language : Thai
Default : No
Forced : No

Audio #2
ID : 3
Format : AC-3
Format/Info : Audio Coding 3
Format settings, Endianness : Big
Codec ID : A_AC3
Duration : 2 h 10 min
Bit rate mode : Constant
Bit rate : 384 kb/s
Channel(s) : 6 channels
Channel positions : Front: L C R, Side: L R, LFE
Sampling rate : 48.0 kHz
Frame rate : 31.250 FPS (1536 SPF)
Bit depth : 16 bits
Compression mode : Lossy
Stream size : 359 MiB (5%)
Title : Thor.Ragnarok.2017.1080p.WEB-DL.DD5.1.H264.One2loadup.com
Language : English
Service kind : Complete Main
Default : Yes
Forced : No

Text #1
ID : 4
Format : UTF-8
Codec ID : S_TEXT/UTF8
Codec ID/Info : UTF-8 Plain Text
Duration : 2 h 9 min
Bit rate : 49 b/s
Count of elements : 1568
Stream size : 47.1 KiB (0%)
Language : English
Default : Yes
Forced : No

Text #2
ID : 5
Format : UTF-8
Codec ID : S_TEXT/UTF8
Codec ID/Info : UTF-8 Plain Text
Duration : 2 h 9 min
Bit rate : 49 b/s
Count of elements : 1568
Stream size : 47.1 KiB (0%)
Default : No
Forced : No

Menu
00:00:00.000 : en:The Great Prophecy
00:06:20.000 : en:The Tragedy Of Loki Of Asgard
00:14:11.000 : en:A Worthy Inclusion
00:22:12.000 : en:The Goddess Of Death
00:26:39.000 : en:”Are You A Fighter, Or Are You Food?”
00:31:29.000 : en:Heiress Apparent
00:35:03.000 : en:The Grandmaster
00:42:49.000 : en:The Eternal Flame
00:48:30.000 : en:The Contest Of Champions
00:59:38.000 : en:The Resistance
01:07:58.000 : en:Hotheaded Fools
01:17:30.000 : en:The Revengers
01:27:25.000 : en:”The Revolution Has Begun”
01:36:08.000 : en:Ready For War
01:42:35.000 : en:”Asgard Is Not A Place”
01:49:20.000 : en:”What Were You The God Of Again?”
01:54:57.000 : en:Ragnarok
02:00:37.000 : en:End Credits

 

 

VIP โหลดไม่ได้แจ้งที่แชททางขวามือเลยจ้า


PART01 |||| PART02 |||| PART03 |||| PART04 |||| PART05 |||| PART06 |||| PART07

PART01 |||| PART02 |||| PART03 |||| PART04 |||| PART05 |||| PART06 |||| PART07

PART01 |||| PART02 |||| PART03 |||| PART04 |||| PART05 |||| PART06 |||| PART07

PART01 |||| PART02 |||| PART03 |||| PART04 |||| PART05 |||| PART06 |||| PART07


4 Comments
  1. Hang Man
    Hang Man says

    โหลดผ่าน IDM ไม่ได้หรอคับ

    1. Admin
      Admin says

      ได้สิ

      1. Hang Man
        Hang Man says

        ผมเติม VIP ไปโหลด server1 คับ แต่ IDM มันไม่เด่งขึ้นมาอะคับไม่ไปโหลดผ่าน Google แทน

        1. Admin
          Admin says

          ได้อัพเดท IDM ไหมฮ๊ะ

Leave A Reply

Your email address will not be published.

%d bloggers like this: