[MINI Super-HQ] Up (2009) ปู่ซ่าบ้าพลัง [1080p] [พากย์ไทย 5.1 + เสียงอังกฤษ 5.1] [บรรยายไทย + อังกฤษ] [เสียงไทย + ซับไทย] [OPENLOAD]

1

Up (2009) ปู่ซ่าบ้าพลัง

โหลดหนัง Up (2009) ปู่ซ่าบ้าพลัง

Up (2009) 1h 36min | Animation, Adventure, Comedy | 7 October 2009 (Netherlands) Summary: Seventy-eight year old Carl Fredricksen travels to Paradise Falls in his home equipped with balloons, inadvertently taking a young stowaway.
Countries: USALanguages: English

เรื่องย่อ Up (2009) ปู่ซ่าบ้าพลัง

คาร์ล เฟรดริกเซน คุณปู่จอมเฮี้ยวช่างฝันคือเอดีตเซลส์แมนขายลูกโป่งที่พกความพร้อมเต็มร้อยสำหรับการเดินทางสุดตื่นเต้นสู่ความสูงสุดขอบฟ้าได้เหินฟ้าสู่อาณาจักรอันไกลโพ้นที่เขาใฝ่ฝันในวัยเด็ก โดยการผูกลูกโป่งนับพันๆใบเข้ากับตัวบ้านเพื่อให้มันลอยได้ แต่โชคชะตาก็ส่งรัสเซล นักสำรวจวัย 8 ขวบที่ไม่เคยเดินทางไปไกลกว่าสวนหลังบ้านของตนมาอยู่ผิดที่ผิดเวลาก็ที่หน้าประตูบ้านคาร์ลนั่นเอง! คุณปู่และ.เจ้าหนูจึงกลายเป็นคู่หูผจญภัยที่ไม่ได้เข้ากันซะเลย แต่ทั้งคู่ได้เผชิญหน้ากับความสูงสุดหวาดเสียวและเพื่อนร่วมทางที่ไม่ธรรมดาอย่างดั๊ก สุนัขพร้อมปลอกคอพิเศษที่ทำให้มันพูดได้รวมไปถึง เควิน นกยักษ์ที่บินไม่เป็น และเพราะทุกชีวิตทั้งหมดที่ติดอยู่ในป่าผืนใหญ่แห่งนี้ทำให้คาร์ลเข้าใจว่า การผจญภัยที่ตั้งตารอคอยก็ไม่ได้เป็นการผจญภัยที่ยิ่งใหญ่ที่สุดในชีวิตเสมอไป!!!

Complete name : [MINI Super-HQ]_Up.2009.1080p.BrRip.AC3.x264.One2loadup.com.mkv
Format : Matroska
Format version : Version 4
File size : 4.84 GiB
Duration : 1 h 36 min
Overall bit rate : 7 164 kb/s
Movie name : [MINI Super-HQ]_Up.2009.1080p.BrRip.AC3.x264.One2loadup.com
Encoded date : UTC 2010-02-22 21:41:31
Writing application : mkvmerge v5.9.0 (‘On The Loose’) built on Dec 9 2012 15:37:01
Writing library : libebml v1.3.0 + libmatroska v1.4.0

Video
ID : 1
Format : AVC
Format/Info : Advanced Video Codec
Format profile : [email protected]
Format settings : CABAC / 4 Ref Frames
Format settings, CABAC : Yes
Format settings, ReFrames : 4 frames
Codec ID : V_MPEG4/ISO/AVC
Duration : 1 h 36 min
Bit rate : 5 840 kb/s
Width : 1 920 pixels
Height : 1 080 pixels
Display aspect ratio : 16:9
Frame rate mode : Constant
Frame rate : 23.976 FPS
Color space : YUV
Chroma subsampling : 4:2:0
Bit depth : 8 bits
Scan type : Progressive
Bits/(Pixel*Frame) : 0.117
Stream size : 3.88 GiB (80%)
Title : [MINI Super-HQ]_Up.2009.1080p.BrRip.AC3.x264.One2loadup.com
Writing library : x264 core 116 r2074 2641b9e
Encoding settings : cabac=1 / ref=4 / deblock=1:0:0 / analyse=0x3:0x133 / me=umh / subme=10 / psy=1 / psy_rd=1.00:0.00 / mixed_ref=1 / me_range=32 / chroma_me=1 / trellis=2 / 8x8dct=1 / cqm=0 / deadzone=21,11 / fast_pskip=0 / chroma_qp_offset=-2 / threads=12 / sliced_threads=0 / nr=0 / decimate=1 / interlaced=0 / bluray_compat=0 / constrained_intra=0 / bframes=3 / b_pyramid=2 / b_adapt=2 / b_bias=0 / direct=3 / weightb=1 / open_gop=0 / weightp=2 / keyint=250 / keyint_min=23 / scenecut=40 / intra_refresh=0 / rc_lookahead=60 / rc=2pass / mbtree=1 / bitrate=5840 / ratetol=1.0 / qcomp=0.60 / qpmin=0 / qpmax=69 / qpstep=4 / cplxblur=20.0 / qblur=0.5 / ip_ratio=1.40 / aq=1:1.00
Language : English
Default : Yes
Forced : No

Audio #1
ID : 2
Format : AC-3
Format/Info : Audio Coding 3
Commercial name : Dolby Digital
Codec ID : A_AC3
Duration : 1 h 36 min
Bit rate mode : Constant
Bit rate : 640 kb/s
Channel(s) : 6 channels
Channel layout : L R C LFE Ls Rs
Sampling rate : 48.0 kHz
Frame rate : 31.250 FPS (1536 SPF)
Bit depth : 16 bits
Compression mode : Lossy
Stream size : 442 MiB (9%)
Language : English
Service kind : Complete Main
Default : Yes
Forced : Yes

Audio #2
ID : 3
Format : AC-3
Format/Info : Audio Coding 3
Commercial name : Dolby Digital
Codec ID : A_AC3
Duration : 1 h 36 min
Bit rate mode : Constant
Bit rate : 640 kb/s
Channel(s) : 6 channels
Channel layout : L R C LFE Ls Rs
Sampling rate : 48.0 kHz
Frame rate : 31.250 FPS (1536 SPF)
Bit depth : 16 bits
Compression mode : Lossy
Stream size : 442 MiB (9%)
Language : Thai
Service kind : Complete Main
Default : No
Forced : No

Text #1
ID : 4
Format : VobSub
Codec ID : S_VOBSUB
Codec ID/Info : Picture based subtitle format used on DVDs
Language : Thai
Default : Yes
Forced : Yes

Text #2
ID : 5
Format : VobSub
Codec ID : S_VOBSUB
Codec ID/Info : Picture based subtitle format used on DVDs
Language : Thai
Default : No
Forced : No

Text #3
ID : 6
Format : PGS
Codec ID : S_HDMV/PGS
Codec ID/Info : Picture based subtitle format used on BDs/HD-DVDs
Language : Thai
Default : No
Forced : No

Text #4
ID : 7
Format : UTF-8
Codec ID : S_TEXT/UTF8
Codec ID/Info : UTF-8 Plain Text
Language : English
Default : No
Forced : No

Menu
00:00:00.000 : :Chapter 01
00:02:39.409 : :Chapter 02
00:07:14.183 : :Chapter 03
00:11:37.488 : :Chapter 04
00:13:33.479 : :Chapter 05
00:15:22.087 : :Chapter 06
00:17:35.888 : :Chapter 07
00:20:25.140 : :Chapter 08
00:24:31.302 : :Chapter 09
00:26:23.790 : :Chapter 10
00:28:02.555 : :Chapter 11
00:29:40.236 : :Chapter 12
00:33:20.164 : :Chapter 13
00:34:20.391 : :Chapter 14
00:35:14.487 : :Chapter 15
00:39:49.511 : :Chapter 16
00:42:34.843 : :Chapter 17
00:44:41.178 : :Chapter 18
00:46:17.232 : :Chapter 19
00:49:19.122 : :Chapter 20
00:52:20.929 : :Chapter 21
00:55:23.987 : :Chapter 22
01:00:33.546 : :Chapter 23
01:04:19.188 : :Chapter 24
01:06:14.303 : :Chapter 25
01:08:58.008 : :Chapter 26
01:10:20.716 : :Chapter 27
01:13:35.327 : :Chapter 28
01:15:24.352 : :Chapter 29
01:17:52.751 : :Chapter 30
01:19:45.864 : :Chapter 31
01:21:53.867 : :Chapter 32
01:23:23.289 : :Chapter 33
01:26:02.657 : :Chapter 34
01:29:02.420 : :Chapter 35
01:36:37.374 : :Chapter 36

DOWNLOAD


PART01 |||| PART02 |||| PART03 |||| PART04 |||| PART05

PART01 |||| PART02 |||| PART03 |||| PART04 |||| PART05

PART01 |||| PART02 |||| PART03 |||| PART04 |||| PART05

PART01 |||| PART02 |||| PART03 |||| PART04 |||| PART05


1 Comment
  1. Boydm Lion
    Boydm Lion says

    ขอบคุณคับ

Leave A Reply

Your email address will not be published.

%d bloggers like this: