[MINI Super-HQ] Tron: Legacy (2010) ทรอน ล่าข้ามโลกอนาคต [1080p] (IMAX) [พากย์ไทย 5.1 + เสียงอังกฤษ DTS] [บรรยายไทย + อังกฤษ] [เสียงไทย + ซับไทย] [PANDAFILE]

2

โหลดหนัง Tron: Legacy (2010) ทรอน ล่าข้ามโลกอนาคต

Tron (2010) 2h 5min | Action, Adventure, Fantasy | 26 January 2011 (Netherlands) Summary: The son of a virtual world designer goes looking for his father and ends up inside the digital world that his father designed. He meets his father's corrupted creation and a unique ally who was born inside the digital world.
Countries: USALanguages: English

เรื่องย่อ Tron: Legacy (2010) ทรอน ล่าข้ามโลกอนาคต

แซม ฟลินน์ เด็กหนุ่มหัวดื้อวัย 27 ที่ยังค้างคาใจกับการหายตัวไปอย่างไร้ร่องรอยของพ่อของเขา เควิน ฟลินน์ ผู้ที่ทุกคนรู้จักดีในนามของผู้พัฒนาเกมชั้นนำระดับโลก แซมเริ่มค้นหาต้นตอของสัญญาณประหลาดที่ถูกส่งมาจากศูนย์เกมของพ่อเขาซึ่งเป็นสัญญาณที่พ่อของเขาเท่านั้นที่จะส่งมาได้ เขากลับถูกดึงเข้าไปสู่โลกดิจิตอลที่เควินถูกขังมานานกว่า 20 ปี และด้วยการช่วยเหลือจากนักรบผู้กล้าหาญ ควอร่า สองพ่อลูกจึงออกเดินทางไปสู่การผจญภัยที่มีความเป็นแ ละความตายเป็นเดิมพัน ในจักรวาลไซเบอร์อันน่าตะลึง จักวาลที่ถูกสร้างขึ้นโดย เควิน ฟลินน์ นั่นเองมันได้พัฒนาไปไกลเกินว่าจะจินตนาการ ไม่ว่าจะเป็นภาหนะ, อาวุธ, สิ่งปลูกสร้าง รวมถึงจอมวายร้ายที่ไม่มีอะไรมาหยุดมันจากการไล่ล่าส องพ่อลูกจากการหลบหนีได้

Complete name : [MINI Super-HQ]_Tron.Legacy.2010.IMAX.1080p.SuperHQ.DTS.x264.One2loadup.com.mkv
Format : Matroska
Format version : Version 4 / Version 2
File size : 4.28 GiB
Duration : 2 h 5 min
Overall bit rate : 4 891 kb/s
Movie name : [MINI Super-HQ]_Tron.Legacy.2010.IMAX.1080p.SuperHQ.DTS.x264.One2loadup.com
Encoded date : UTC 2016-05-27 02:06:46
Writing application : mkvmerge v8.9.0 (‘Father Daughter’) 32bit
Writing library : libebml v1.3.3 + libmatroska v1.4.4

Video
ID : 1
Format : AVC
Format/Info : Advanced Video Codec
Format profile : [email protected]
Format settings : CABAC / 4 Ref Frames
Format settings, CABAC : Yes
Format settings, ReFrames : 4 frames
Codec ID : V_MPEG4/ISO/AVC
Duration : 2 h 5 min
Bit rate : 3 447 kb/s
Width : 1 920 pixels
Height : 1 080 pixels
Display aspect ratio : 16:9
Frame rate mode : Constant
Frame rate : 23.976 FPS
Color space : YUV
Chroma subsampling : 4:2:0
Bit depth : 8 bits
Scan type : Progressive
Bits/(Pixel*Frame) : 0.069
Stream size : 2.97 GiB (70%)
Title : [MINI Super-HQ]_Tron.Legacy.2010.IMAX.1080p.SuperHQ.DTS.x264.One2loadup.com
Writing library : x264 core 146 r2538 121396c
Encoding settings : cabac=1 / ref=4 / deblock=1:-3:-3 / analyse=0x3:0x113 / me=umh / subme=11 / psy=1 / psy_rd=1.00:0.00 / mixed_ref=1 / me_range=64 / chroma_me=1 / trellis=2 / 8x8dct=1 / cqm=0 / deadzone=21,11 / fast_pskip=0 / chroma_qp_offset=-2 / threads=6 / lookahead_threads=1 / sliced_threads=0 / nr=0 / decimate=1 / interlaced=0 / bluray_compat=0 / constrained_intra=0 / bframes=4 / b_pyramid=2 / b_adapt=2 / b_bias=0 / direct=3 / weightb=1 / open_gop=0 / weightp=1 / keyint=250 / keyint_min=23 / scenecut=40 / intra_refresh=0 / rc_lookahead=120 / rc=2pass / mbtree=1 / bitrate=3447 / ratetol=1.0 / qcomp=0.60 / qpmin=0 / qpmax=69 / qpstep=4 / cplxblur=20.0 / qblur=0.5 / vbv_maxrate=99999 / vbv_bufsize=99999 / nal_hrd=none / filler=0 / ip_ratio=1.40 / aq=1:1.00
Language : English
Default : Yes
Forced : Yes

Audio #1
ID : 2
Format : AC-3
Format/Info : Audio Coding 3
Codec ID : A_AC3
Duration : 2 h 5 min
Bit rate mode : Constant
Bit rate : 640 kb/s
Channel(s) : 6 channels
Channel positions : Front: L C R, Side: L R, LFE
Sampling rate : 48.0 kHz
Frame rate : 31.250 FPS (1536 SPF)
Bit depth : 16 bits
Compression mode : Lossy
Stream size : 573 MiB (13%)
Title : AC3 BD MASTER
Language : Thai
Service kind : Complete Main
Default : Yes
Forced : Yes

Audio #2
ID : 3
Format : DTS
Format/Info : Digital Theater Systems
Codec ID : A_DTS
Duration : 2 h 5 min
Bit rate mode : Constant
Bit rate : 755 kb/s
Channel(s) : 6 channels
Channel positions : Front: L C R, Side: L R, LFE
Sampling rate : 48.0 kHz
Frame rate : 93.750 FPS (512 SPF)
Bit depth : 24 bits
Compression mode : Lossy
Stream size : 675 MiB (15%)
Title : DTS
Language : English
Default : No
Forced : No

Text #1
ID : 4
Format : VobSub
Codec ID : S_VOBSUB
Codec ID/Info : Picture based subtitle format used on DVDs
Title : 1080P BD MASTER
Language : Thai
Default : No
Forced : No

Text #2
ID : 5
Format : VobSub
Codec ID : S_VOBSUB
Codec ID/Info : Picture based subtitle format used on DVDs
Title : 1080P BD YELLOW
Language : Thai
Default : No
Forced : No

Text #3
ID : 6
Format : VobSub
Muxing mode : zlib
Codec ID : S_VOBSUB
Codec ID/Info : Picture based subtitle format used on DVDs
Title : 480P BD MASTER
Language : Thai
Default : No
Forced : No

Text #4
ID : 7
Format : PGS
Codec ID : S_HDMV/PGS
Codec ID/Info : Picture based subtitle format used on BDs/HD-DVDs
Title : BD MASER
Language : Thai
Default : Yes
Forced : Yes

Text #5
ID : 8
Format : PGS
Codec ID : S_HDMV/PGS
Codec ID/Info : Picture based subtitle format used on BDs/HD-DVDs
Title : BD MASTER
Language : English
Default : No
Forced : No

DOWNLOAD


PART01 |||| PART02 |||| PART03 |||| PART04 |||| PART05

PART01 |||| PART02 |||| PART03 |||| PART04 |||| PART05

PART01 |||| PART02 |||| PART03 |||| PART04 |||| PART05

PART01 |||| PART02 |||| PART03 |||| PART04 |||| PART05


2 Comments
  1. Panitan Muenduang
    Panitan Muenduang says

    อัพไฟล์ใหม่ให้หน่อยได้ไหมคับผม

    1. Admin
      Admin says

      แก้ไขเรียบร้อยฮ๊ะ


Disable Comments
%d bloggers like this: