[MINI Super-HQ] Tinker Bell and the Legend of the NeverBeast (2014) ทิงเกอร์เบลล์ กับ ตำนานแห่ง เนฟเวอร์บีสท์ ภาค 5 [1080p] [พากย์ไทย 5.1 + เสียงอังกฤษ DTS] [บรรยายไทย + อังกฤษ] [เสียงไทย + ซับไทย] [ONE2UP]

0

inker Bell and the Legend of the NeverBeast (2014) ทิงเกอร์เบลล์ กับ ตำนานแห่ง เนฟเวอร์บีสท์ ภาค 5

โหลดหนัง Tinker Bell and the Legend of the NeverBeast (2014) ทิงเกอร์เบลล์ กับ ตำนานแห่ง เนฟเวอร์บีสท์ ภาค 5

Tinker Bell and the Legend of the NeverBeast (2014) 1h 16min | Animation, Adventure, Family | Video 3 March 2015 Summary: Fun and talented animal fairy Fawn believes you can't judge a book by its cover, or an animal by its fangs, so she befriends a huge and mysterious creature known as the NeverBeast. While ... See full summary »
Countries: USALanguages: English

เรื่องย่อ Tinker Bell and the Legend of the NeverBeast (2014) ทิงเกอร์เบลล์ กับ ตำนานแห่ง เนฟเวอร์บีสท์ ภาค 5

ตำนานของสิ่งมีชีวิตลี้ลับจุดประกายความสงสัยให้กับ ทิงเกอร์เบลล์ และ ฟอน นางฟ้าผู้กล้าทำทุกอย่างเพื่อช่วยเหลือสัตว์ที่เดือดร้อนไม่เว้นแม้กระทั่ง เนฟเวอร์บีสท์ เจ้าตัวโตที่มีดวงตาสีเขียวเรืองแสง ที่โดนตามล่าจากเหล่านางฟ้าผู้พิทักษ์แต่ฟอนกลับเห็น จิตใจอันอ่อนโยนภายใต้รูปลักษณ์อันหยาบกระด้างนั้น เธอต้องทำทุกทางเพื่อโน้มน้าวทิงเกอร์เบลล์และบรรดานางฟ้าให้เสี่ยงชีวิตช่วยเหลือเจ้า เนฟเวอร์บีสท์ ให้จงได้

Complete name : [MINI Super-HQ]_5.Tinker.Bell.and.the.Legend.Of.The.NeverBeast.2014.1080p.BrRip.DTS.x264.One2loadup.com.mkv
Format : Matroska
Format version : Version 4
File size : 3.88 GiB
Duration : 1 h 16 min
Overall bit rate : 7 286 kb/s
Movie name : [MINI Super-HQ]_5.Tinker.Bell.and.the.Legend.Of.The.NeverBeast.2014.1080p.BrRip.DTS.x264.One2loadup.com
Encoded date : UTC 2017-03-12 07:51:04 / UTC 2017-03-12T07:13:28Z
Writing application : mkvmerge v8.3.0 (‘Over the Horizon’) 64bit
Writing library : libebml v1.3.1 + libmatroska v1.4.2 / Lavf55.12.0

Video
ID : 1
Format : AVC
Format/Info : Advanced Video Codec
Format profile : [email protected]
Format settings : CABAC / 4 Ref Frames
Format settings, CABAC : Yes
Format settings, ReFrames : 4 frames
Codec ID : V_MPEG4/ISO/AVC
Duration : 1 h 16 min
Bit rate : 4 992 kb/s
Width : 1 920 pixels
Height : 1 080 pixels
Display aspect ratio : 16:9
Frame rate mode : Constant
Frame rate : 23.976 (24000/1001) FPS
Color space : YUV
Chroma subsampling : 4:2:0
Bit depth : 8 bits
Scan type : Progressive
Bits/(Pixel*Frame) : 0.100
Stream size : 2.66 GiB (69%)
Title : [MINI Super-HQ]_5.Tinker.Bell.and.the.Legend.Of.The.NeverBeast.2014.1080p.BrRip.DTS.x264.One2loadup.com
Writing library : x264 core 142 r2479 dd79a61
Encoding settings : cabac=1 / ref=1 / deblock=1:0:0 / analyse=0x1:0x111 / me=hex / subme=2 / psy=1 / psy_rd=1.00:0.00 / mixed_ref=0 / me_range=16 / chroma_me=1 / trellis=0 / 8x8dct=0 / cqm=0 / deadzone=21,11 / fast_pskip=1 / chroma_qp_offset=0 / threads=12 / lookahead_threads=4 / sliced_threads=0 / nr=0 / decimate=1 / interlaced=0 / bluray_compat=0 / constrained_intra=0 / bframes=3 / b_pyramid=2 / b_adapt=1 / b_bias=0 / direct=1 / weightb=1 / open_gop=0 / weightp=1 / keyint=240 / keyint_min=24 / scenecut=40 / intra_refresh=0 / rc_lookahead=10 / rc=crf / mbtree=1 / crf=20.0 / qcomp=0.60 / qpmin=0 / qpmax=69 / qpstep=4 / vbv_maxrate=20000 / vbv_bufsize=25000 / crf_max=0.0 / nal_hrd=none / filler=0 / ip_ratio=1.40 / aq=1:1.00
Language : Thai
Default : Yes
Forced : Yes
Color range : Limited
Color primaries : BT.709
Transfer characteristics : BT.709
Matrix coefficients : BT.709

Audio #1
ID : 2
Format : DTS
Format/Info : Digital Theater Systems
Codec ID : A_DTS
Duration : 1 h 16 min
Bit rate mode : Constant
Bit rate : 1 509 kb/s
Channel(s) : 6 channels
Channel layout : C L R Ls Rs LFE
Sampling rate : 48.0 kHz
Frame rate : 93.750 FPS (512 SPF)
Bit depth : 24 bits
Compression mode : Lossy
Stream size : 823 MiB (21%)
Title : Surround
Language : English
Default : No
Forced : No

Audio #2
ID : 3
Format : AC-3
Format/Info : Audio Coding 3
Commercial name : Dolby Digital
Codec ID : A_AC3
Duration : 1 h 16 min
Bit rate mode : Constant
Bit rate : 640 kb/s
Channel(s) : 6 channels
Channel layout : L R C LFE Ls Rs
Sampling rate : 48.0 kHz
Frame rate : 31.250 FPS (1536 SPF)
Bit depth : 16 bits
Compression mode : Lossy
Stream size : 349 MiB (9%)
Title : Surround
Language : Thai
Service kind : Complete Main
Default : Yes
Forced : Yes

Text #1
ID : 4
Format : PGS
Muxing mode : zlib
Codec ID : S_HDMV/PGS
Codec ID/Info : Picture based subtitle format used on BDs/HD-DVDs
Language : Thai
Default : No
Forced : Yes

Text #2
ID : 5
Format : PGS
Muxing mode : zlib
Codec ID : S_HDMV/PGS
Codec ID/Info : Picture based subtitle format used on BDs/HD-DVDs
Language : Thai
Default : Yes
Forced : Yes

Text #3
ID : 6
Format : PGS
Muxing mode : zlib
Codec ID : S_HDMV/PGS
Codec ID/Info : Picture based subtitle format used on BDs/HD-DVDs
Language : English
Default : No
Forced : No

Menu
00:00:00.000 : :Chapter 1
00:03:08.288 : :Chapter 2
00:10:55.171 : :Chapter 3
00:16:45.187 : :Chapter 4
00:20:26.784 : :Chapter 5
00:24:20.601 : :Chapter 6
00:30:58.832 : :Chapter 7
00:34:41.221 : :Chapter 8
00:38:09.345 : :Chapter 9
00:41:13.112 : :Chapter 10
00:44:38.859 : :Chapter 11
00:49:55.092 : :Chapter 12
00:53:05.866 : :Chapter 13
00:57:07.983 : :Chapter 14
01:02:54.037 : :Chapter 15
01:07:54.712 : :Chapter 16

DOWNLOAD


PART01 |||| PART02 |||| PART03 |||| PART04

PART01 |||| PART02 |||| PART03 |||| PART04

PART01 |||| PART02 |||| PART03 |||| PART04

PART01 |||| PART02 |||| PART03 |||| PART04


Leave A Reply

Your email address will not be published.

%d bloggers like this: